<?xml version="1.0" standalone="no"?>
<!DOCTYPE svg PUBLIC "-//W3C//DTD SVG 1.1//EN" "http://www.w3.org/Graphics/SVG/1.1/DTD/svg11.dtd" >
<svg xmlns="http://www.w3.org/2000/svg" xmlns:xlink="http://www.w3.org/1999/xlink" version="1.1">
<metadata>
Created by FontForge 20170731 at Wed May 26 21:38:04 2021
 By Aleksey,,,
Copyright (c) 2015 by Youssef Habchi. All rights reserved.
</metadata>
<defs>
<font id="DistantStroke" horiz-adv-x="1216" >
  <font-face 
    font-family="Distant Stroke"
    font-weight="300"
    font-stretch="normal"
    units-per-em="2048"
    panose-1="0 0 0 0 0 0 0 0 0 0"
    ascent="1536"
    descent="-512"
    x-height="469"
    cap-height="1290"
    bbox="-628.263 -764.485 2391.77 1580.76"
    underline-thickness="102"
    underline-position="-307"
    unicode-range="U+0020-FB02"
  />
<missing-glyph horiz-adv-x="364" 
 />
    <glyph glyph-name="f_l" unicode="fl" horiz-adv-x="555" 
d="M879 1157q23 14 2 -38l-2 -4q-2 -4 -2 -5l-375 -688q-26 -50 -197 -359q-4 -7 -8.5 -19.5t-3.5 -12.5q3 0 35 16q17 12 36 26.5t32 25t35.5 30.5t30.5 27.5t33.5 32t30.5 28.5q4 3 43 41t75 72t38 32q4 -4 -96 -104q-100 -103 -211 -197q-54 -42 -74 -51q-28 -9 -35 8
q-7 22 10 56q50 111 158 307q-79 -43 -246.5 -154t-189.5 -131q-14 -29 -47.5 -99.5t-52.5 -109.5t-48 -96t-55 -104q-65 -127 -143 -226q-112 -136 -174 -145q-32 -4 -43 21t-6 57q6 42 43 117q51 102 141 221q134 180 317 327q81 173 95 199q82 172 125 256
q59 113 90 171.5t85 149.5t105 162q37 47 56 70.5t56 59t68 51.5q32 16 56 -2q18 -15 18 -48q0 -39 -35 -124q-44 -99 -160 -256q-93 -130 -192 -234q-49 -54 -193 -192q-59 -120 -92 -195q16 23 179.5 124t246.5 136q13 25 40.5 76.5t41.5 77.5q37 70 295 538q35 58 64 78z
M657 1110q6 45 -14 47q-22 2 -51 -22q-78 -62 -172 -209q-49 -78 -135 -238q-64 -121 -166 -334q62 59 121 121q150 156 258 313q81 120 116 195q37 79 43 127zM-207 -223q23 47 65 134l56 116q-156 -134 -270 -279q-87 -112 -138 -207q-70 -142 -55 -188q10 -35 55.5 0
t81.5 80q29 35 74 104q54 86 131 240z" />
    <glyph glyph-name="t_t" unicode="tt" horiz-adv-x="483" 
d="M1276 801q55 -8 85 -22q7 -3 5 -5q-1 -1 -17 2t-36 7l-25 5q-264 37 -620 -10q-53 -8 -72 -10q-159 -291 -197 -360q-33 -65 -99.5 -184t-94.5 -173q-10 -20 -8 -24q7 -7 54.5 29t76.5 63q49 43 94 88q4 3 43 40.5t75 71.5t38 33q5 -6 -84.5 -94.5t-118.5 -114.5
q-67 -64 -129 -112q-4 -2 -13 -8.5t-15 -10.5t-15 -7.5t-17 -2.5q-14 1 -16.5 15.5t5.5 38t17 43.5t20.5 42t12.5 25l62 117q-105 -105 -146 -143t-127 -109q-3 -2 -12.5 -8.5t-15.5 -10.5t-15 -7.5t-16 -2.5q-13 1 -16 17t2 26q4 19 12.5 39t22 45.5t18.5 36.5
q47 89 142.5 266t142.5 266q-109 -34 -191 -90q-1 -1 -11 -9.5t-18.5 -14.5t-11.5 -4q-3 3 -4 8t1.5 10.5t4 9t5.5 10.5l5 7q16 22 43 39q68 43 201 77q25 43 68 124t80.5 146t74.5 119q24 24 31 25q4 0 5 -3t-1 -10t-4 -13t-6 -14.5t-5 -10.5l-3 -6q-26 -50 -89.5 -165
t-95.5 -179q96 23 203 39q11 19 81.5 146.5t115.5 190.5q2 2 6.5 7t7.5 8t7.5 6t8.5 4q4 0 5 -3t-1 -10t-4 -13t-6 -14.5t-5 -10.5l-3 -6q-28 -59 -87.5 -164.5t-74.5 -134.5q161 17 275 20q188 9 389 -18zM305 317q39 70 118 217.5t122 223.5q-42 -6 -119.5 -23.5
t-89.5 -19.5q-98 -181 -168 -307q-29 -58 -96.5 -176t-98.5 -181q-10 -20 -10 -24q5 -9 60 33.5t71 58.5q73 64 211 198z" />
    <glyph glyph-name="t_l" unicode="tl" horiz-adv-x="505" 
d="M1264 803q8 -1 29.5 -6.5t41.5 -12t19 -10.5q-1 -2 -17 1t-36 7.5t-25 5.5q-253 35 -541 -2q-87 -121 -248 -301q-91 -108 -168 -176q-6 -14 -45.5 -99t-54.5 -132q0 -2 -2.5 -12t-3.5 -16.5t0 -14t4 -10.5q7 -7 22.5 -1t24.5 13q51 35 102 83.5t109.5 108.5t93.5 93
q23 23 31 20q-27 -29 -31 -33q-15 -15 -68.5 -70.5t-78 -80t-68.5 -65t-82 -70.5q-43 -32 -65 -19q-24 12 -14 72q5 25 14.5 53.5t17 46.5t22.5 52t21 48q-24 -25 -56 -56t-56 -53.5t-25 -23.5q-67 -64 -129 -112q-3 -2 -12.5 -8.5t-15.5 -10.5t-15 -7.5t-16 -2.5
q-13 1 -16.5 17t1.5 26q12 38 31 78t47 90.5t41 75.5l135 252q16 28 44.5 82t39.5 75q-107 -33 -190 -90q-1 -1 -11 -9.5t-18.5 -14.5t-11.5 -4q-3 3 -4 8t1.5 10.5t4 9t5.5 10.5l5 7q16 22 43 39q68 43 201 77q25 43 68 124t80.5 146t74.5 119q24 24 31 25q14 2 -15 -57
q-25 -48 -88 -164t-96 -180q75 18 172 32q112 202 119 213q92 155 160 220q60 60 100 43q24 -11 27 -47t-9.5 -78.5t-33 -90t-36.5 -78.5t-26 -48q-25 -46 -65 -107q3 0 49.5 3t70.5 3q214 10 390 -16zM178 207q1 0 105 100q17 36 52 110t56.5 118.5t52.5 106t58 112.5
q-96 -19 -178 -39q-98 -181 -168 -307q-71 -134 -131 -242q-59 -99 -74 -139q5 -9 60 33.5t71 58.5q66 58 96 88zM633 911q-11 -19 -32.5 -57.5t-33.5 -58.5q116 12 168 16q53 81 64 102q78 136 102 254q5 27 -2.5 51.5t-34.5 4.5q-45 -34 -86 -88q-63 -86 -145 -224z
M334 338q203 212 383 446q-139 -17 -166 -22q-119 -218 -217 -424z" />
    <glyph glyph-name="l_t" unicode="lt" horiz-adv-x="493" 
d="M1520 801q14 -2 50 -12.5t36 -14.5q0 -1 -20.5 2.5t-42.5 7.5t-23 4q-400 53 -940 -67l-172 -313q-29 -60 -101 -186t-104 -195q7 2 14.5 5.5t14 6.5t14.5 8.5t13 8.5t13.5 10t12.5 10t13 11t11.5 10.5t12.5 11.5t12 10q66 58 96 88q4 3 43 40.5t75 71.5t38 33
q5 -6 -84.5 -94.5t-118.5 -114.5q-67 -64 -129 -112q-3 -2 -12.5 -8.5t-15.5 -10.5t-15 -7.5t-16 -2.5q-13 1 -16.5 17t1.5 26q12 37 31 76.5t45 87.5t39 74q-67 -73 -141 -144q-97 -92 -129 -116q-45 -30 -66 -19q-7 4 -11.5 10.5t-5.5 16.5t-1 19.5t3 23t5.5 23.5t8 24.5
t8 22t8 20.5t6.5 16q115 274 309 639q14 25 55.5 100.5t63 112t61.5 92t80 95.5q59 59 100 43q40 -15 23 -101q-18 -94 -101 -241q-54 -97 -135 -201q46 15 111 29q25 43 67 122.5t78.5 142.5t73.5 117q24 24 31 25q14 2 -15 -57q-31 -58 -91.5 -169.5t-90.5 -168.5
q426 83 801 55q72 -6 119 -14zM311 311q95 186 213 396q-78 -21 -133 -45q-24 -28 -75.5 -89t-81.5 -96t-75.5 -83.5t-86.5 -84.5q-7 -17 -46.5 -100.5t-54.5 -130.5q-9 -47 -2 -53l10.5 -3.5t15 4t18 9t20 13t20.5 15.5t20 16.5t17.5 15.5t13.5 12t9 8q44 42 198 196z
M385 911q-114 -198 -252 -477q-8 -18 -25.5 -53.5t-25.5 -52.5q188 208 276 317q-9 -6 -20 -13t-25 -14.5t-20 -11.5q-2 -1 -8 -5t-10.5 -7.5t-10 -6.5t-8 -3t-4.5 2q-4 23 20.5 46.5t53.5 39.5q33 17 86 39q74 88 139 202q78 136 102 254q13 70 -20 63q-34 -8 -94 -80
q-6 -8 -11 -15q-53 -72 -143 -224z" />
    <glyph glyph-name="s_s" unicode="ss" horiz-adv-x="616" 
d="M514 291q7 0 44.5 -6t73 -13.5t34.5 -11.5q-1 -1 -21 1.5t-41.5 5.5t-23.5 3q-18 2 -54 2q15 -34 13 -72.5t-21 -70.5q-29 -53 -84 -88t-117 -43q-69 -9 -86 22q-23 39 7 101q29 60 97 106t134 52q-1 1 -2 3t-2 3q-158 -4 -258 -25q12 -38 4.5 -80.5t-33.5 -75.5
q-32 -44 -83 -73t-105 -35q-72 -9 -86 35q-12 43 28 98q39 49 91.5 78t130.5 55q-7 15 -31 46t-31 52q-9 28 0.5 57.5t32.5 49.5t55 28t60 -3q21 -9 22 -28.5t-11 -38t-30 -30.5q-2 -2 -14.5 -7.5t-13.5 -2.5q0 -1 7.5 3.5t16 11.5t12.5 12q21 26 19 45q-1 22 -30 22.5
t-42 -8.5q-26 -10 -42 -30.5t-13 -47.5q1 -27 37 -64t43 -55q126 24 258 21q-16 20 -24.5 32t-16 31.5t-6.5 38.5q6 60 63 86q16 8 34 12t37.5 1t31.5 -17q14 -16 8 -34t-18.5 -31.5t-28.5 -22.5q-19 -13 -23 -6q23 14 25 16q16 13 26 33q8 15 3.5 27.5t-21.5 15.5
q-35 6 -68 -14.5t-37 -54.5q-5 -31 23 -62q43 -48 47 -55zM489 180q6 49 -14 88q-128 -20 -199 -112q-49 -57 -38 -113q11 -40 75 -27q63 14 113.5 59.5t62.5 104.5zM168 190q3 34 -8 60q-129 -35 -199 -113q-59 -59 -43 -102q6 -16 25.5 -20t36 0t32.5 10q61 22 105 65.5
t51 99.5z" />
    <glyph glyph-name=".notdef" horiz-adv-x="364" 
 />
    <glyph glyph-name=".null" horiz-adv-x="0" 
 />
    <glyph glyph-name="nonmarkingreturn" horiz-adv-x="682" 
 />
    <glyph glyph-name="space" unicode=" " horiz-adv-x="364" 
 />
    <glyph glyph-name="exclam" unicode="!" horiz-adv-x="751" 
d="M805 1192q15 12 26 7q6 -4 3 -13q-9 -17 -21.5 -34.5t-30 -41t-24.5 -33.5q-132 -190 -285 -452q-19 -36 -118.5 -206t-104.5 -167q-1 1 -0.5 2.5t1 3.5t1 3.5t0.5 2.5q13 35 86 178q62 117 123 228q168 296 295 473q22 33 49 49zM174 88q12 0 15 -11t-5 -26
q-8 -14 -21.5 -24.5t-25.5 -10.5t-15 11t5 26q7 15 21 25t26 10z" />
    <glyph glyph-name="quotedbl" unicode="&#x22;" horiz-adv-x="583" 
d="M487 1223q3 0 6 -5.5t1 -7.5q-2 -9 -15 -22q-56 -78 -160 -189q-49 -53 -75 -77q-12 -12 -13 -7l2 7q11 20 29 41q17 22 85 110.5t106 134.5q12 18 34 15zM621 1223q3 0 5.5 -5.5t0.5 -7.5q-2 -9 -15 -22q-59 -82 -159 -189q-43 -46 -76 -77q-11 -11 -13 -7q0 1 3 7
q13 24 28 41q17 22 85 110.5t106 134.5q12 18 35 15z" />
    <glyph glyph-name="numbersign" unicode="#" horiz-adv-x="1079" 
d="M449 537q-12 -1 -91 -11q-30 -4 -47 2q-11 5 -8.5 10.5t12.5 8.5q56 11 154 18q99 154 186 273q6 13 36 38t38 9q4 -8 -22 -43q-62 -83 -191 -271q191 13 262 13q86 132 180 258q34 52 64 47q6 -1 6.5 -5.5t-2.5 -12t-6.5 -12.5t-8.5 -12l-5 -7q-88 -114 -185 -256
q75 0 146 -9l14 -6q1 -1 -2 -2q-10 -2 -35 -2q-23 0 -69 -2t-68 -2q-26 -38 -113 -172q29 2 86 2q11 0 36 -0.5t61.5 -2t62.5 -4.5t25 -7t-66 -4q-150 -4 -221 -8q-47 -74 -137 -222q-25 -40 -33 -45l4 17l14 35q35 72 117 212q-140 -6 -278 -18q-20 -33 -56 -88.5
t-65.5 -101.5t-53.5 -88q-1 -3 -7.5 -13t-13.5 -19.5t-9 -8.5q0 6 6 18q19 48 44.5 96t64.5 113t53 90q-15 -2 -44.5 -5t-43.5 -5q-35 -4 -54 0q-11 5 -9.5 10t11.5 8q25 6 156 21zM659 389q16 24 49 79t56 91q-176 -8 -266 -16q-52 -75 -113 -170q92 8 274 16z" />
    <glyph glyph-name="dollar" unicode="$" horiz-adv-x="1007" 
d="M1016 1292q29 -47 14 -123q-13 -64 -52 -117t-95 -69q-34 -11 -56 0q-13 6 -6.5 13.5t17.5 9.5q65 16 104 55q28 27 48 64t25.5 79t-16.5 78q-18 33 -61 43l-12 -18q-145 -221 -314 -523q62 -43 64 -45q116 -93 121 -209q7 -125 -58.5 -234.5t-177.5 -186.5
q-113 -75 -244 -113q-164 -44 -270 -16q-104 26 -121 108q-21 90 66 223q68 104 170 189q100 85 190 114q36 9 51 9q16 -3 -2 -7q-45 -10 -98 -41q-106 -62 -199 -161q-102 -106 -143 -211q-41 -122 29 -174q68 -50 215 -33q122 14 250 78q192 95 270 250q38 72 39.5 154
t-43.5 153q-39 52 -131 114q-124 -221 -207 -374q-17 -33 -47 -91t-55.5 -106t-49.5 -90q-5 -8 -12 -12q-3 10 19 55q35 69 231 446q1 3 98 187q-71 46 -111.5 98t-29.5 121q11 60 57 127q71 99 187 168q132 81 233 76q30 53 70 90q37 25 42 18q2 -3 1 -10q-1 -5 -19 -35
q-2 -2 -21.5 -29t-27.5 -41q45 -12 68 -51zM479 903q26 -45 111 -102q158 299 299 528q-50 -4 -127 -37q-122 -58 -203 -155q-126 -140 -80 -234z" />
    <glyph glyph-name="percent" unicode="%" horiz-adv-x="1212" 
d="M954 1145q7 3 15.5 1t1.5 -11q-163 -163 -223 -228q-109 -118 -334 -397q-50 -63 -213 -281q-24 -31 -74.5 -102.5t-79.5 -108.5q-9 -9 -8 0q0 6 4 13q12 27 29.5 57.5t30.5 51.5t35.5 56t33.5 52q145 213 326 432q203 241 370 403q54 54 86 62zM776 406q31 -6 51 -28.5
t23 -53.5q3 -32 -6 -62q-9 -37 -21 -39q-1 0 0.5 9.5t3.5 20t2 11.5q4 37 0 58q-6 32 -29.5 46.5t-56.5 8.5q-56 -8 -110 -62q-50 -44 -74 -106q-27 -79 2 -115q32 -39 105 -8q63 29 106 88q17 24 37 41q20 13 20 0q0 -1 -6 -25q-27 -54 -79 -96.5t-109 -52.5
q-75 -11 -107 41q-24 37 -14 90q10 60 48 113t91 88q63 41 123 33zM231 819q-31 25 -35.5 65t7.5 75t33 67q31 51 77 88t99 47q76 15 108 -39q17 -40 6 -73q-1 -1 -2.5 1t-2 4.5l-1 5t-0.5 3.5q-11 73 -67 76q-48 5 -113 -41q-49 -40 -80 -94q-41 -76 -27 -127
q7 -29 32.5 -38t56.5 -1q56 13 112 69q11 11 35 31q17 11 24 5q2 -2 1 -7q-3 -9 -8 -17.5t-12.5 -17.5t-12 -14t-15 -15t-14.5 -14q-21 -21 -58 -37t-76 -19.5t-67 17.5z" />
    <glyph glyph-name="ampersand" unicode="&#x26;" horiz-adv-x="1042" 
d="M1331 659q10 -10 4 -10h-2q-4 1 -11 2.5t-17.5 4t-16.5 3.5q-66 10 -125 7q-91 0 -221 -21q-49 -81 -74 -127q-31 -91 -88 -170q-4 -8 -6 -10q-37 -73 -67 -143q-63 -141 -101 -236q-5 -15 -17 -43t-14 -33l-7 -10l-1 2q0 12 11 45q3 8 9 25.5t9 25.5q74 191 121 297
q-118 -123 -289 -209q-145 -73 -252 -75q-69 0 -122.5 33t-71.5 96q-27 101 55 249q70 115 164 203q101 90 219 142q92 39 211 63q-87 38 -96 137q-8 99 59 209q63 106 184 180q140 86 244 76q55 -4 80.5 -44t17.5 -95q-8 -50 -48.5 -104t-92.5 -72q-29 -11 -53 -8
q-20 3 -24 12q-2 6 9 10q9 3 29 10t34 13t27 14q51 34 80 91t9 110q-10 27 -38 38t-61 9q-52 -2 -123 -37q-109 -59 -194 -168q-98 -127 -103 -238q0 -69 43 -106q16 -13 35 -19q1 0 7 -3t8.5 -4.5t5.5 -5.5t2 -9q-1 -8 -14 -13t-35 -8.5t-23 -3.5q-67 -12 -127 -32
q-117 -41 -212 -121t-161 -189q-82 -139 -77 -235q3 -70 53 -105q102 -66 289 -2q108 37 208 111q97 66 170 164q35 79 64 133q50 102 61 121q10 42 11 47q-32 -7 -115 -29q-80 -27 -119 -53q-40 -29 -57 -27q-22 0 9 36q8 9 11 11q44 37 131 60q92 26 174 37q7 11 21.5 34
t21.5 35q23 35 45 47q14 10 25 6q7 -2 2 -14q-7 -16 -35 -53q-14 -19 -32 -51q123 13 227 10q70 0 117 -12q15 -4 26 -11zM889 623q6 12 8 14q-1 0 -4 -1t-4 -1v-12z" />
    <glyph glyph-name="quotesingle" unicode="'" horiz-adv-x="305" 
d="M541 1223q3 0 5.5 -5.5t0.5 -7.5q-2 -9 -15 -22q-59 -82 -159 -189q-43 -46 -76 -77q-11 -11 -13 -7q0 1 3 7q13 24 28 41q17 22 85 110.5t106 134.5q12 18 35 15z" />
    <glyph glyph-name="parenleft" unicode="(" horiz-adv-x="641" 
d="M633 1145q16 0 6 -17q-3 -4 -8.5 -8.5t-13 -9t-9.5 -6.5q-38 -24 -102 -76q-129 -112 -230 -272q-151 -246 -186 -494q-13 -104 0 -235q2 -12 0 -12q-3 0 -8 16q-23 64 -19 162q6 245 140 507q131 258 334 406q57 39 96 39z" />
    <glyph glyph-name="parenright" unicode=")" horiz-adv-x="673" 
d="M618 1044q41 -99 23 -243q-28 -243 -190 -484q-83 -122 -168 -198q-55 -51 -97 -74q-1 0 -12 -6t-22.5 -12t-24 -12t-20.5 -8.5t-9 -0.5t10 8.5t22.5 13t12.5 7.5q37 24 72 51q182 152 301 420q55 128 78 256q26 164 -14 268q-4 9 -11.5 27.5t-11.5 27.5
q-6 12 -10.5 26.5t0.5 21.5q4 0 8 -0.5t8 -3.5t7 -5t7 -7t5.5 -7t5.5 -7.5t4 -6.5q10 -16 26 -52z" />
    <glyph glyph-name="asterisk" unicode="*" horiz-adv-x="886" 
d="M928 1047q10 5 16 1q2 -2 -4 -7l-2 -1q-53 -37 -90 -57q-137 -85 -244 -166l12 -24h222q23 -8 24 -11q1 -2 -4 -3q-1 -1 -2 -1q-18 -4 -53 -4q-117 0 -176 -4q37 -77 63 -213q6 -28 2 -37q-4 -7 -12 11q-1 5 -5 14q-2 7 -3 8q-18 110 -72 215q-38 -3 -65 -6
q-108 -84 -211 -193q-34 -28 -37 -30q-23 -11 -25 -7q-6 11 12 33q92 102 209 193q-128 -15 -153 -19q-31 -4 -47 9q-5 11 2 16q4 2 45 8q79 13 194 16q7 6 22.5 17.5t22.5 17.5q-41 63 -98 127q-9 9 -15 23.5t3 23.5q13 6 49 -39q50 -56 86 -118q123 88 291 186
q18 10 43 21zM588 791q-1 2 -3 5t-3 5q-2 -2 -6.5 -5t-6.5 -5h19z" />
    <glyph glyph-name="plus" unicode="+" horiz-adv-x="739" 
d="M629 242l4 -2t4.5 -2.5t3.5 -3.5t0 -3q-4 -4 -16 -4q-41 7 -54 9q-88 13 -198 10q-71 -107 -135 -193q-20 -28 -33 -41q-2 -2 -4.5 -3.5t-4.5 -2t-3 1.5t0 6q2 6 12 21q102 155 133 207q-113 -9 -227 -45q-22 -4 -33 -2q-3 0 -10 2.5t-7 3.5q-2 5 0 8.5t6.5 6.5t8.5 4.5
t10.5 3.5t7.5 3q162 43 260 41q4 7 51.5 89t67.5 118q7 15 21.5 25t27.5 4q5 -3 6.5 -8t-0.5 -11t-4.5 -11.5t-6.5 -12t-5 -8.5q-74 -116 -123 -183q79 0 127 -8q86 -11 113 -20z" />
    <glyph glyph-name="comma" unicode="," horiz-adv-x="462" 
d="M152 76q-4 10 -4 24.5t8 18.5q8 5 17 -4.5t13 -20.5q17 -42 -14 -106q-69 -127 -217 -211q-6 -2 -10.5 -2t-3.5 4t16 14q94 54 166 170q51 82 29 113z" />
    <glyph glyph-name="hyphen" unicode="-" horiz-adv-x="780" 
d="M549 252q31 0 100 -14q23 -4 21 -7q-6 -4 -23 -4q-275 17 -506 -32q-31 -8 -47 6q-4 3 -3 8t7 8q114 31 328 39q82 0 123 -4z" />
    <glyph glyph-name="period" unicode="." horiz-adv-x="395" 
d="M205 35q-7 -15 -21 -25t-26 -10t-16 11t3 26q8 14 22 24.5t26 10.5t15.5 -11t-3.5 -26z" />
    <glyph glyph-name="slash" unicode="/" horiz-adv-x="696" 
d="M973 1126q7 3 15 1t1 -11q-5 -9 -33 -33q-231 -222 -524 -591q-150 -189 -305 -408q-30 -48 -61 -82q-8 -9 -8 -2q-1 6 3 12q2 5 13 27q44 83 116 190q329 478 697 838q53 49 86 59z" />
    <glyph glyph-name="zero" unicode="0" horiz-adv-x="886" 
d="M883 1149q41 -41 41 -150q0 -111 -60 -260q-96 -242 -284 -452q-98 -110 -195 -181q-122 -91 -231 -112q-131 -22 -209 39q-90 71 -78 239q15 223 190 506q156 251 363 402q91 63 172 90q44 15 90 18q6 3 39 1.5t33 -9.5q0 -2 -14.5 -4t-30.5 -3.5t-17 -2.5
q-34 -5 -80 -23q-86 -36 -153 -86q-189 -133 -348 -375q-85 -132 -139.5 -252t-73.5 -245q-25 -167 55 -236q44 -40 115 -44.5t125 18.5q103 34 219 135q93 83 180 194q183 237 256 471q49 143 31 250q-11 56 -54 74q-72 29 -200 -43q-105 -58 -211 -164q-86 -80 -170 -196
q-5 -5 -35.5 -52t-59 -89.5t-30.5 -41.5q-4 3 11 32.5t36 64.5t22 36q152 232 353 379q139 104 235 111q70 4 107 -39z" />
    <glyph glyph-name="one" unicode="1" horiz-adv-x="800" 
d="M907 1319q11 4 17.5 -5.5t3.5 -19.5q-18 -32 -54 -89t-51 -83q-16 -27 -46.5 -82t-45.5 -82q-41 -72 -160 -287t-188 -331q-11 -17 -29 -50.5t-42 -73t-58 -87.5q-1 -1 -4.5 -5t-6 -6.5t-5.5 -2.5q-2 1 -1 6.5t4 14.5l3 9q14 34 33.5 74.5t34 68t39.5 74t36 68.5
q180 339 262 483q95 165 195 318q-30 -24 -85 -71.5t-67 -57.5q-138 -112 -209 -158q-140 -93 -235 -121q-111 -31 -176 8q-16 8 -13 13q2 2 15 -4q95 -33 231 28q105 48 217 129q160 115 314 263q4 4 19 19.5t28 25.5t24 14zM-145 -57q-27 -2 -6 29q4 6 8 10q36 36 114 59
q108 38 297 53q162 12 256 -4q12 -1 30 -7t21 -9q11 -11 -7 -9q-2 1 -13 3q-62 12 -134 11.5t-127 -7.5t-132 -21q-170 -28 -254 -86q-27 -19 -53 -22z" />
    <glyph glyph-name="two" unicode="2" horiz-adv-x="917" 
d="M948 1309q35 -24 48.5 -66t9.5 -82.5t-19 -81.5q-70 -196 -330 -377q-69 -48 -224.5 -143t-233.5 -151q-111 -80 -209 -170q-46 -44 -90 -93q-57 -70 -72 -106q-10 -29 -6 -33q8 -2 12 -1.5t18 4t15 3.5q36 10 131 41q26 8 80 26t96.5 31t81.5 23q142 40 254 45
q76 4 115 -20q28 -16 34 -45q1 -2 0.5 -9.5l-1 -15t-3.5 -13.5t-6 -5q-2 1 -3.5 15t-2.5 15q-11 37 -84 37q-56 0 -141 -18q-78 -16 -161.5 -35.5t-192.5 -46.5t-160 -39q-12 -4 -64 -14q-31 -4 -39 10q-13 23 21 80q47 77 172 198q149 137 336 260q27 18 88 58t95.5 63
t84 58.5t90.5 70t78 70.5q96 93 156 201q89 174 2 237q-85 62 -244 -18q-107 -55 -176 -164q-37 -56 -51 -117q-18 -74 8 -104q1 -2 10.5 -9t14.5 -14.5t1 -11.5q-9 -12 -38 -2q-24 10 -36 35t-10 53q3 98 107 215q79 95 190 147q157 74 248 9z" />
    <glyph glyph-name="three" unicode="3" horiz-adv-x="970" 
d="M989 1237q32 -107 -69 -238q-104 -136 -306 -229q63 -23 106 -68.5t50 -107.5q24 -201 -168 -406q-94 -98 -218 -160t-251 -63q-136 -3 -215 78q-82 80 -33 215q40 107 146 203q41 36 96 69q19 11 49 25t31 10q2 -4 -45 -28q-114 -68 -189 -168q-24 -33 -42 -69
t-30.5 -78t-5 -83t36.5 -71q74 -77 207 -70q123 5 252 82q115 66 201.5 170t122.5 227q35 114 -4 185q-38 69 -125 96q-147 -52 -238 -41q-16 2 -28 10t-7 23q6 15 41 30q90 33 217 4q151 67 271 193q75 79 108 168q23 74 0 121q-26 53 -92 63q-68 12 -139 -20
q-50 -22 -105 -66q-69 -59 -100 -127q-19 -44 4 -69q12 -10 31 -21q8 -3 12.5 -8t-2.5 -12q-14 -6 -33.5 0t-33.5 16q-32 29 -25 74q12 65 90 135q109 95 225 112q69 10 128.5 -16.5t78.5 -89.5zM391 733q76 6 152 37q-17 4 -51 8q-66 6 -134 -14q-11 -3 -23.5 -12t-2.5 -15
q19 -8 59 -4z" />
    <glyph glyph-name="four" unicode="4" horiz-adv-x="886" 
d="M197 6q13 81 77 217q43 92 109 203q7 14 20.5 37.5t18.5 32.5q-27 -6 -118 -30t-152.5 -34.5t-122.5 -9.5q-35 3 -58 20t-22 50q0 43 57 104q21 23 49 49t48 43.5t55 47.5t51 44q236 205 428 353q159 117 221 157q142 95 148 62q2 -10 -17 -41q-18 -29 -64.5 -104
t-72.5 -115q-5 -8 -248 -396q-69 -110 -96 -157q84 19 141 28q114 13 164 2l34 -12q5 -4 5 -6l-31 8q-43 7 -145 -6q-74 -12 -184 -41q-82 -133 -164 -287q-9 -18 -33.5 -63t-40 -75.5t-30.5 -72t-17 -73.5q0 -11 -2 -15q-3 -3 -7 7q-5 11 -5 24q0 17 4 49zM838 1126
q105 145 141 209q-83 -38 -170 -102q-188 -128 -436 -338q-228 -197 -307 -270q-62 -57 -82 -93q-19 -30 -13 -55q5 -23 41 -31q39 -8 129 9q95 16 297 67q100 167 242 375q26 39 158 229z" />
    <glyph glyph-name="five" unicode="5" horiz-adv-x="929" 
d="M1122 1333q5 -3 -23 -27.5t-34 -27.5q-42 -28 -92 -37q-68 -14 -205 -6q-17 1 -64 6t-80 3.5t-63 -13.5q-30 -14 -67 -62q-134 -161 -209 -315q0 -1 -5.5 -12t-9 -20.5t-0.5 -12.5q1 -1 8 1.5t16 6t11 4.5q79 30 131 41q165 39 262 -8q59 -28 85 -84.5t20 -124.5
q-11 -117 -86 -246q-59 -104 -160 -202q-101 -95 -211 -154q-143 -75 -254 -70q-58 2 -108.5 27t-75.5 72q-48 93 16 241q48 114 139 211q41 44 87 78q1 1 8.5 6t15.5 10.5t16.5 11.5t14 9t6.5 2q1 -2 -9 -10t-21.5 -17t-12.5 -10q-13 -9 -64 -55q-50 -50 -106 -135
q-85 -131 -88 -242q-3 -71 33 -113q44 -47 106 -59q112 -20 262 57q108 57 203 152q92 92 156 205q77 138 84 243q10 122 -86 166q-100 41 -256 6q-66 -12 -127 -36q-30 -10 -33 14q0 12 16 49q81 152 230 340q39 46 80 61q30 12 68 17t59.5 5t73.5 -3t63 -4q103 -4 166 10
q40 10 94 41q1 1 5.5 4t8.5 5t6 1z" />
    <glyph glyph-name="six" unicode="6" horiz-adv-x="993" 
d="M1038 1260q53 -79 -2 -213q-28 -60 -72 -106.5t-98 -57.5q-16 -5 -40 -1q-9 3 -9 7q2 6 43 16q47 15 96 68q46 49 72.5 111.5t15.5 119.5q-9 58 -63 86q-42 20 -123 8q-109 -20 -237 -110q-106 -73 -201 -176q-118 -128 -236 -316q139 80 287 107q163 27 258 -23
q52 -30 76.5 -81.5t21.5 -114.5q-4 -95 -51 -189.5t-119 -169.5q-165 -168 -342 -229q-55 -18 -107.5 -22t-106.5 14.5t-87 62.5q-65 86 -41 252q23 149 107 305q-15 -11 -49 -41q-28 -27 -82 -84q-2 -2 -16 -19t-26 -32t-13 -14q-1 0 0.5 3l4 8t6 10.5t7.5 11.5l7 10.5
t6 8.5t3 5q30 42 60 68q43 46 108 94q78 147 187 281q194 235 405 342q158 79 264 57q55 -13 86 -57zM246 713q-14 -6 -76 -41q-92 -153 -125 -244q-60 -149 -47 -264q7 -72 43 -113q38 -43 102 -53q85 -15 193 29q110 47 209 139q101 92 162 196q50 83 69 183
q23 131 -45 194q-89 72 -246 49q-112 -13 -239 -75z" />
    <glyph glyph-name="seven" unicode="7" horiz-adv-x="917" 
d="M1141 1298q15 7 33 15t50 18.5t50.5 5t13.5 -29.5q-4 -20 -33 -43q-43 -35 -101.5 -63.5t-101 -43t-114.5 -35.5q-155 -146 -397 -422q60 5 137.5 2.5t134.5 -20.5l5 -3q5 -3 7.5 -6t-0.5 -5q-4 -1 -10.5 0.5t-7.5 1.5q-114 24 -287 6q-8 -9 -25.5 -29t-25.5 -29
q-196 -230 -324 -432q-63 -101 -104 -182q-21 -43 -23 -43q-1 1 -0.5 4t1.5 7l1 3q30 97 109 230q49 83 152 231q60 86 174 232q-228 -35 -346 -105q-8 -7 -35 -20q-2 0 -7.5 -2t-9.5 -3t-8.5 -1t-7.5 2q-3 3 -4 7t1 8.5t5 8.5t7.5 9t7.5 8.5t7 7t5 4.5q45 34 149 63
q117 31 260 41q193 235 383 406q-129 -30 -235 -43q-162 -19 -256 -4q-116 17 -148 84q-3 5 -6.5 23t0.5 18q2 0 4.5 -7t4.5 -14t3 -8q15 -42 90 -68q68 -20 170 -16q184 3 402 61q52 42 79 63t75.5 52.5t95.5 54.5zM1274 1313q1 5 -4 7t-12.5 1t-13.5 -2t-9 -2
q-94 -24 -191 -100l-79 -68q171 49 266 117q37 28 43 47z" />
    <glyph glyph-name="eight" unicode="8" horiz-adv-x="886" 
d="M948 1206q-6 -90 -63 -153q-30 -32 -68.5 -51t-75.5 -11q-9 2 -14.5 7.5t0.5 13.5q8 6 29 10q39 9 73 33q86 60 97 141q8 63 -29 90q-40 33 -125 21q-117 -20 -223 -119q-90 -83 -123 -187q-27 -93 61 -184q20 7 59 20.5t58 20.5q1 0 24 8t49 17t54 18t46 14.5t18 4.5
q4 -8 -76 -39.5t-105 -38.5q-18 -7 -54.5 -20.5t-55.5 -20.5q12 -11 40 -35.5t48 -44.5t35 -41q73 -103 53 -248q-20 -123 -101 -229t-194 -166q-71 -37 -148.5 -50.5t-158 5t-135.5 74.5q-51 52 -59 126t14 139.5t63 127.5q122 187 406 311q13 5 38 15.5t37 15.5
q-88 101 -45 217q40 103 146 188q107 90 227 113q79 12 125 -12q49 -27 53 -101zM580 662q-20 25 -62 64.5t-59 57.5q-8 -3 -66 -26q-247 -105 -370 -252q-34 -41 -59.5 -85t-44.5 -95.5t-17.5 -104.5t26.5 -98q38 -68 115 -96.5t156.5 -19.5t148.5 44q115 57 196 166
t93 234q10 127 -57 211z" />
    <glyph glyph-name="nine" unicode="9" horiz-adv-x="940" 
d="M961 1010q39 14 70.5 48t43.5 77q17 71 -28 116q-38 38 -111 45q-107 12 -254 -57q-188 -93 -334 -291q-69 -89 -102 -176q-11 -29 -16 -58t-4 -60t18.5 -54t50.5 -31q61 -14 180 29q113 48 199 143q30 34 61 80t46 72t50.5 93t42.5 81q7 9 18.5 8.5t14.5 -10.5
q2 -9 -4 -51q-56 -238 -194 -494q-144 -257 -326 -395q-115 -87 -229 -121q-171 -49 -242 43q-23 32 -29 75t1 81.5t24 77.5q25 60 63 104l9 10q10 10 20 20.5t21.5 21.5t19.5 16.5t10 3.5q0 -2 -2 -4q-7 -7 -23.5 -24.5t-28.5 -30.5t-22 -27q-43 -60 -61 -113
q-13 -38 -17 -74t5.5 -75t36.5 -64q78 -72 245 -2q108 43 211 139q161 149 305 422q105 196 168 397q-79 -141 -145 -229q-134 -167 -313 -219q-133 -36 -189 27q-69 76 -2 241q45 103 148 213q91 99 207 170t241 101q171 38 248 -39q49 -50 39 -126t-68 -122
q-64 -46 -102 -33q-11 5 2.5 13t26.5 12z" />
    <glyph glyph-name="colon" unicode=":" horiz-adv-x="309" 
d="M172 88q-7 -15 -21 -25t-26 -10t-15.5 11t3.5 26q8 14 21.5 24.5t25.5 10.5t15.5 -11t-3.5 -26zM303 285q-7 -15 -21 -25t-26 -10t-15.5 11t3.5 26q8 14 21.5 24.5t25.5 10.5t15.5 -11t-3.5 -26z" />
    <glyph glyph-name="semicolon" unicode=";" horiz-adv-x="309" 
d="M504 285q-7 -15 -21 -25t-26 -10t-16 11t3 26q8 14 22 24.5t26 10.5t15.5 -11t-3.5 -26zM319 76q-4 7 -3.5 23t8.5 20q8 5 17 -4.5t13 -20.5q17 -42 -14 -106q-69 -127 -217 -211q-6 -2 -10.5 -2t-3.5 4t16 14q94 54 166 170q18 29 29 62.5t-1 50.5z" />
    <glyph glyph-name="less" unicode="&#x3c;" horiz-adv-x="729" 
d="M590 575q6 -5 -4 -6q-121 -44 -279 -118q-20 -10 -79.5 -38t-100 -48.5t-74.5 -40.5q-17 -11 -35 -11q-8 0 -15.5 3.5t-4.5 11.5q3 7 29 20q66 39 192 98q150 71 240 103q8 2 31.5 10t40 12.5t32.5 6.5q21 0 27 -3zM563 76q4 -1 6 -2.5t0.5 -3t-6.5 -2.5q-6 -1 -25.5 1
t-27.5 5q-99 34 -170 71q-107 54 -236 140q-16 9 -22 28q-2 5 -0.5 14.5t8.5 6.5q17 -8 35 -23q104 -70 256 -151q122 -62 160 -76q10 -4 22 -8z" />
    <glyph glyph-name="equal" unicode="=" horiz-adv-x="714" 
d="M627 389q12 0 22 -8q5 -3 -1 -5q-1 -1 -3 -1q-8 -2 -53 -2q-173 2 -471 -37q-28 -4 -45 10q-3 2 -3.5 7t3.5 7q2 0 17.5 4t23.5 5q42 7 85.5 11t96 6t83 3t96.5 1.5t87 0.5q42 0 62 -2zM547 199q23 -8 24 -12q2 -3 -6 -5q-19 -2 -112 -2q-128 -2 -412 -35q-29 -4 -45 9
q-8 8 0 16q4 2 41 8q158 21 448 21h62z" />
    <glyph glyph-name="greater" unicode="&#x3e;" horiz-adv-x="765" 
d="M219 25q-6 5 4 6q111 40 279 119q24 12 80.5 38.5t98 47t75.5 40.5q16 11 35 11q9 0 16 -3.5t4 -11.5q-3 -7 -29 -20q-66 -39 -192 -98q-150 -71 -240 -103q-85 -26 -104 -28q-23 0 -27 2zM246 524q-4 1 -6 2.5t-0.5 3t6.5 2.5q6 1 25.5 -1t27.5 -5q99 -34 170 -71
q107 -54 236 -140q16 -9 22 -28q2 -5 0.5 -14.5t-8.5 -6.5q-17 8 -35 23q-104 70 -256 151q-122 62 -160 76q-10 4 -22 8z" />
    <glyph glyph-name="question" unicode="?" horiz-adv-x="817" 
d="M924 1161q42 -18 53 -60t2 -81.5t-29 -79.5q-48 -98 -159 -209q-52 -53 -193 -184q-109 -102 -182 -180q-35 -35 -101 -109q-20 -20 -22 -20q-1 0 1.5 4.5t6 9.5t4.5 6q67 85 70 88q52 60 119 127q33 34 125 123.5t139 140.5q110 118 155 207q15 26 24.5 53.5t14 58.5
t-9.5 56t-47 35q-53 15 -131 -8q-62 -18 -115 -56q-132 -90 -147 -194q-9 -60 14 -80q6 -4 18.5 -10.5t18.5 -10.5q7 -5 5 -10t-11 -8q-28 -7 -51.5 12.5t-28.5 48.5q-5 48 35 117q60 103 178 170q61 33 121 47q75 15 123 -4zM203 74q12 0 15 -11t-5 -26q-7 -15 -21 -25
t-26 -10t-15 11t5 26q6 13 20.5 24t26.5 11z" />
    <glyph glyph-name="at" unicode="@" horiz-adv-x="1081" 
d="M1112 694q18 -41 18 -90q0 -67 -20 -108q-15 -28 -20 -21q-2 10 4 39q22 155 -56 236q-61 64 -178 71q-124 8 -262 -47q-238 -96 -395 -305q-90 -123 -113 -231q-26 -113 14 -191q28 -56 81 -87.5t116 -36.5t123.5 3t118.5 27q117 38 229 117q52 33 88 67q2 1 18.5 15
t31.5 26.5t16 11.5q2 -2 -11 -16t-28.5 -29.5t-16.5 -17.5q-203 -192 -448 -229q-107 -15 -201.5 15t-140.5 116q-75 142 24 348q42 83 119 170q85 98 203 176q227 146 434 133q81 -5 149.5 -47t102.5 -115zM975 479q8 6 8 2l-2 -6q-15 -26 -45 -59q-26 -30 -78 -86
l-63 -64.5t-60 -54t-73 -53.5q-67 -35 -74 10q-2 30 26 88q10 20 30 54t26 46q-33 -37 -95 -92q-2 -1 -15.5 -13.5t-18 -16.5t-19 -16t-21.5 -17t-21.5 -15.5t-23.5 -15.5t-22 -12t-23.5 -10.5t-22.5 -6t-23 -2.5q-32 0 -42.5 25.5t-3 62t19.5 68.5t23 51q59 106 175 182
q62 42 118 60q66 23 115 12q58 -11 72 -53q4 -6 3.5 -16t-7.5 -13q-5 -2 -10 3t-9 12.5t-6 9.5q-16 26 -45.5 36t-57.5 6.5t-59 -14.5q-87 -34 -164 -122q-72 -82 -114 -170q-1 -2 -7 -16t-10.5 -26t-8.5 -27.5t-2 -27t11 -16.5q32 -14 99.5 29.5t114.5 88t81 81.5
q35 41 74 92q5 6 16 16.5t17 13.5q8 7 20.5 6t9.5 -16q-2 -11 -20 -39q-67 -95 -113 -172q-3 -6 -12.5 -23t-13.5 -25.5t-8.5 -23t-4.5 -26.5q37 8 105 59q84 65 194 183q7 8 19.5 22t22.5 25.5t18 21.5z" />
    <glyph glyph-name="A" unicode="A" 
d="M1270 606q67 -17 65 -24q-1 -2 -18 1.5t-38 8.5t-26 6q-90 18 -215 18q-6 -15 -74.5 -170.5t-103.5 -236.5q-34 -83 -47 -121q-22 -65 -14 -96q4 -16 19.5 -19t37.5 5.5t44.5 20t46.5 27.5t38 26.5t23 17.5q88 66 190 168q13 14 38.5 41t39.5 40q3 3 12.5 10.5t9.5 6.5
q-1 -4 -5 -9.5t-9 -11.5t-6 -8q-50 -62 -141 -149q-108 -105 -199 -164q-71 -43 -109 -47q-29 -3 -45 15t-18 48q-2 36 25 123q39 108 194 483q-61 -1 -276 -20q-80 -97 -152 -174q-223 -245 -393 -381q-121 -97 -209 -123q-36 -8 -55 -6q-9 0 -25 5t-8 13q5 4 37 11
q127 25 272 139q72 55 203 180q153 156 303 332q-82 -12 -203 -37q-197 -42 -293 -119q-3 -3 -14 -13t-18 -15q-9 -5 -11.5 5t0.5 17q10 23 29 39q60 53 182 88q149 45 353 66l43 49q95 114 335 418q16 20 47 60t57 73t50 59q37 32 49 4q8 -20 -2 -65q-6 -26 -13.5 -51.5
t-19 -56t-18 -47t-23 -55t-20.5 -48.5q-123 -278 -148 -330q148 -8 226 -27zM733 625q123 10 260 10q85 197 174 393l56 129q30 76 32 98q-1 1 -16 -15.5t-37 -42t-43 -50t-39 -46.5t-20 -24q-30 -38 -92.5 -114.5t-92.5 -114.5q-54 -68 -182 -223z" />
    <glyph glyph-name="B" unicode="B" horiz-adv-x="1226" 
d="M1270 365q30 -30 28 -35q-1 0 -14 10t-27 20.5t-16 12.5q-32 20 -86 39q-54 -158 -240 -299q-212 -159 -481 -201q-156 -25 -262 0q-66 15 -113.5 55t-50.5 101q-5 95 119 194q87 71 231 125q163 288 519 903q-141 -7 -246 -37q-172 -46 -271 -114q-48 -32 -75.5 -52
t-62.5 -55t-56 -71q-11 -20 -16.5 -40t-0.5 -41.5t27 -29.5q8 -3 25.5 -4t25.5 -4q21 -5 -6 -20q-6 -4 -10 -5q-28 -9 -54 3t-38 38q-17 45 18 109q46 77 156 149q211 146 489 178q80 10 103 11q18 32 53 67q24 24 33 19q3 -1 4 -5t-0.5 -9.5t-4 -12t-6.5 -15t-8 -15
t-8.5 -15.5t-7.5 -14q55 0 115 -13q145 -33 200 -133q21 -39 20.5 -84t-16 -84t-42.5 -76q-71 -91 -203 -147q20 -7 47 -23q106 -68 113 -208q3 -50 -15 -111q79 -31 111 -61zM862 127q187 148 246 299q-59 17 -129 23q-256 29 -530 -50q-45 -13 -48 -14
q-148 -243 -184 -295q-20 -30 -31 -39q-5 -5 -3 6l1 4q5 11 14.5 31.5t12.5 26.5q18 35 66 121.5t67 124.5q-93 -38 -141 -68q-131 -81 -168 -168q-28 -68 8 -121q25 -41 78 -61q91 -41 252 -25q267 30 489 205zM1155 1233q-82 53 -225 57q-58 -100 -161 -279t-189 -326.5
t-164 -276.5q221 69 471 63q122 -3 225 -31q13 38 16 70q8 71 -13.5 130.5t-76.5 92.5q-27 17 -51 25q-121 -45 -244 -45q-46 0 -61 12q-13 13 4 25q58 36 141 42.5t150 -12.5q35 16 78 43q121 84 168 195q27 67 8 123q-20 55 -76 92zM952 770q-83 18 -168 2q-35 -6 -65 -18
q-27 -14 -29 -19q31 -13 121 -4q64 8 141 39z" />
    <glyph glyph-name="C" unicode="C" horiz-adv-x="765" 
d="M1100 1305q58 -52 55 -125q-2 -76 -72 -172q-75 -102 -192 -177q-95 -59 -174 -69q-73 -8 -105 24q-16 16 -8 21q7 5 21 -2q14 -5 34 -8q99 -12 240 73q119 74 186 177q84 126 27 210q-44 65 -143 62q-106 -2 -246 -78q-221 -116 -414 -346q-166 -197 -250 -406
q-56 -147 -59 -268q-4 -160 76 -235q62 -54 168 -43q110 12 243 90q102 59 207 151q41 36 86 84q2 2 16.5 18.5t27.5 31t14 14.5q4 -3 -18 -33t-29 -37q-46 -49 -70 -72q-65 -62 -166 -135q-97 -65 -195 -104q-121 -48 -213 -27q-56 12 -95 48.5t-57.5 83.5t-24.5 105.5
t-2 109.5t14 102q44 209 194 432q147 215 359 366q89 65 190 111q136 61 254 61q78 0 121 -38z" />
    <glyph glyph-name="D" unicode="D" 
d="M1073 319q42 -14 90 -40q18 -11 44.5 -34.5t21.5 -27.5q-1 0 -4 2t-7 5t-6 5q-60 51 -151 78q-229 -218 -535 -330q-137 -50 -258 -67q-82 -11 -139 -6q-79 8 -117 41q-52 40 -28 106q12 33 63 84q88 85 225 137q70 27 93 33q102 189 180 324q76 140 250 440q12 21 39 67
t45.5 78t23.5 43q-200 -3 -387 -72t-315 -202q-95 -95 -109 -170q-8 -36 10 -57q18 -15 54 -15q8 0 28.5 2.5t30.5 1.5q22 -4 -6 -22q-3 -3 -6 -4q-63 -30 -109 4q-49 33 -26 108q32 101 155 201q99 83 209 131q237 106 481 109q16 31 43 61q25 24 35 29q20 7 8 -25l-12 -26
q-10 -20 -22 -41q138 -6 245 -64q61 -33 109 -94q80 -104 63 -250q-8 -63 -39 -145q-90 -224 -270 -398zM956 1255q-22 -38 -63 -109t-51 -89q-287 -501 -428 -738q321 81 614 13q177 172 260 375q18 44 29.5 79.5t19.5 78t4.5 84t-18.5 81.5q-42 114 -162 174
q-85 44 -205 51zM403 301q-96 -160 -133 -213q-16 -26 -26 -33q-4 -3 1 11l3 10q14 33 31.5 68.5t40 77t34.5 65.5q-45 -14 -135 -54q-116 -56 -184 -135q-51 -55 -39 -100q12 -52 94 -70q100 -20 248 17q135 33 240 80q243 105 438 294q-276 68 -613 -18z" />
    <glyph glyph-name="E" unicode="E" horiz-adv-x="858" 
d="M1116 1300q37 -32 37 -88q1 -66 -42.5 -125.5t-106.5 -78.5q-39 -9 -56 -2q-14 8 -8.5 12.5t21.5 9.5q65 19 108 62q27 27 45 63t16 76.5t-36 64.5q-33 24 -78.5 28t-85 -6.5t-78.5 -29.5q-106 -52 -182 -170q-66 -107 -66 -207q0 -67 39 -118q76 11 131 8q74 -4 103 -29
q13 -9 15.5 -23t-7.5 -26q-30 -30 -99 -21q-96 10 -157 68q-119 -27 -228 -100q-91 -60 -163.5 -152t-116.5 -197q-59 -139 -31 -256q15 -60 62.5 -98t107.5 -37q103 -2 236 64q97 49 204 135q112 87 215 190l21 15q0 -8 -21 -29q-96 -107 -204 -190q-96 -74 -199 -129
q-51 -27 -101.5 -45t-109.5 -28t-113.5 6t-93.5 60q-40 44 -53 113.5t0 128.5q19 114 98 236q112 175 295 266q78 40 180 63q-21 26 -36 62q-30 77 -9.5 155.5t68.5 143.5t113 110q123 84 247 84q77 0 119 -39zM778 784q-72 0 -121 -10q50 -50 134 -57q42 -4 63 2
q37 16 18 37q-9 11 -28.5 17.5t-29.5 7.5t-36 3z" />
    <glyph glyph-name="F" unicode="F" horiz-adv-x="661" 
d="M879 651q2 -1 11 -3.5t17 -5t17 -6t14 -6.5t4 -5q-1 -1 -28.5 5.5t-34.5 8.5q-137 26 -318 23q0 -1 -1 -2.5t-1 -2.5q-41 -75 -117 -219.5t-139.5 -259.5t-126.5 -215q-21 -31 -24 -31q-2 1 -0.5 6.5t4 12.5t2.5 8q36 83 84 182t83 166t95.5 183t87.5 169
q-263 -13 -492 -65q-146 -38 -211 -70q-44 -23 -86 -57q-32 -32 -38 -27q-9 9 8 43q8 15 43 41q82 56 231 90q251 63 555 66q14 27 176 338q27 52 58 72q8 6 15.5 6.5t8.5 -11.5q-1 -15 -16.5 -43t-16.5 -30q-30 -55 -87.5 -166t-86.5 -166q181 0 310 -29zM94 1061
q145 76 373 133q233 60 534 98q284 37 539 31q234 -11 361 -61q4 -1 25.5 -13t40.5 -25t15 -16q-3 3 -9.5 6.5t-11 6.5t-5.5 4q-65 36 -139.5 51t-176.5 22q-184 14 -409 -6q-287 -25 -553 -82q-359 -77 -533 -163q-34 -15 -86 -50q-16 -11 -32 -30q-10 -14 -13 2v10
q8 40 80 82z" />
    <glyph glyph-name="G" unicode="G" horiz-adv-x="808" 
d="M1231 1135q11 -71 -36.5 -132t-119.5 -61q-20 0 -32 9q-8 5 1 12q6 4 14 7t18.5 6t15.5 5q61 23 90 74q30 59 6.5 115t-86.5 81q-75 28 -197 9q-126 -17 -248 -86q-182 -100 -333 -300q-72 -96 -119 -180q-74 -137 -90 -256q-10 -71 14 -121q26 -46 94 -53q77 -9 162 31
q98 43 213 154q82 78 178 204q49 65 162 228q17 28 35 49q6 6 14 6q2 0 7 -3t5 -7q0 -13 -16 -45q-46 -97 -100.5 -196t-138 -241t-111.5 -192q88 51 207 110q20 11 104.5 52t87.5 37q2 -4 -47.5 -31t-106.5 -56t-61 -32q-49 -25 -203 -109q-113 -189 -223 -352
q-9 -14 -52.5 -76.5t-58.5 -83t-54 -73.5t-63 -79.5t-61 -67t-72.5 -71t-74.5 -57.5q-61 -34 -100 -27q-52 11 -52 84q3 57 33 119q44 100 146 213q79 94 196 189q160 134 369 260q242 378 379 624q-13 -17 -70 -94q-71 -98 -154 -194q-93 -107 -184 -180.5t-194 -104.5
q-45 -13 -86 -14.5t-81.5 15.5t-62.5 56q-50 91 -2 258q43 143 156 293q156 201 370 316q214 111 402 106q94 -4 141 -37q61 -42 70 -110zM102 -455q107 133 316 455q67 103 108 170q-228 -138 -393 -289q-86 -77 -160 -166q-99 -119 -133 -225q-21 -83 -2 -111
q20 -25 62 -10q49 17 108 76q25 22 94 100z" />
    <glyph glyph-name="H" unicode="H" horiz-adv-x="1187" 
d="M602 518q62 105 143 270q36 69 99.5 206.5t111.5 222.5q14 23 21 32q14 23 22 29q7 3 4 -15l-8 -32q-61 -164 -186 -420q-70 -149 -147 -283q213 31 409 -34q27 51 80.5 152.5t79.5 152.5q34 64 264 471q25 49 61 82q7 7 18.5 14.5t12.5 -0.5q3 -13 -61 -131
q-94 -164 -236 -420q-132 -239 -182 -336q80 -30 123 -61q10 -7 39 -33.5t24 -30.5q-80 74 -192 113q-171 -329 -238 -449q-21 -38 -26 -43q-9 -12 -8 -2q1 6 4 13q14 40 90 207q20 44 43.5 92t52.5 106l45 90q-201 62 -412 31q-68 -118 -110 -182q-176 -275 -340 -406
q-62 -48 -109 -67q-81 -35 -121 -4q-67 53 9 202q52 107 159 207q99 96 215 160q122 67 246 96zM307 72q139 169 287 428q-170 -40 -320 -146q-119 -87 -190 -172q-106 -122 -121 -227q-14 -83 37 -98q43 -11 117 34q90 57 190 181z" />
    <glyph glyph-name="I" unicode="I" horiz-adv-x="1177" 
d="M1200 1157q25 17 29 2q2 -8 -2 -18.5t-13 -25t-10 -17.5q-38 -73 -114.5 -221t-114.5 -222q-195 -360 -311 -563q-14 -24 -31 -47q129 6 241 -2q86 -8 127 -18q74 -19 72 -27q-1 -2 -18 4q-185 46 -486 16q-115 -10 -276 -38q-186 -38 -264 -72q-43 -15 -68 -21
q-25 -8 -27 4q-2 10 17 23q34 24 137 51q230 63 535 80q11 33 30 72q45 85 122 243t112 226q101 197 262 501q21 46 51 70zM401 1014q-45 -32 -69 -74q-18 -35 -25 -14q-5 15 0 39q6 24 22 44.5t42.5 38.5t43 27t48.5 25q155 78 434 133q267 51 520 57q230 4 371 -30
q37 -9 77 -28q13 -7 11 -9q-1 -1 -8.5 1.5t-17.5 6t-13 4.5q-149 46 -391 39q-252 -8 -543 -72q-144 -29 -264 -72q-164 -58 -238 -116z" />
    <glyph glyph-name="J" unicode="J" horiz-adv-x="720" 
d="M1020 1090l3 4q3 3 6 6.5t7 7t6.5 4.5t4.5 0q5 -4 -5 -33q-9 -20 -51 -98q-30 -53 -133 -227q-42 -70 -297 -478q128 69 232 113q63 27 110 45q15 5 43.5 13.5t28.5 5.5q1 -2 -17 -9t-40.5 -15.5t-26.5 -10.5q-195 -87 -348 -168q-104 -165 -279 -424q-4 -6 -30.5 -44
t-33 -47.5t-30.5 -42.5t-34 -46.5t-32 -41.5t-36.5 -44t-35 -39t-40 -41.5t-39.5 -36.5q-56 -49 -100 -68q-26 -15 -59.5 -11.5t-47.5 32.5q-21 43 4 125q12 41 53 121q106 185 340 368q137 111 336 221q164 259 398 650q79 132 143 209zM260 -106q102 153 201 309
q-179 -102 -326 -221q-200 -164 -301 -338q-34 -58 -55 -119q-23 -74 -10 -109q24 -64 151 40q4 4 6 5q82 73 176 201q65 90 158 232zM1915 1249q8 -2 22 -7.5t26 -11t11 -7.5q-14 3 -55.5 12t-44.5 10q-180 35 -389 29q-262 -6 -522 -62q-301 -64 -508 -174
q-128 -65 -224 -149q-124 -104 -172 -203q-14 -29 -21 -58t-2 -62.5t30 -51.5q50 -40 145 4q15 7 38.5 23t29.5 20q4 2 8.5 4t9 0.5t4.5 -6.5q2 -9 -14 -35q-29 -35 -76.5 -52t-93.5 -11q-52 6 -82 43.5t-25 91.5q7 95 109 209q134 155 356 270q337 174 785 219
q203 19 391 4q142 -13 264 -49z" />
    <glyph glyph-name="K" unicode="K" horiz-adv-x="1114" 
d="M1958 1438l2 -2q28 -26 22 -29q-7 0 -22 5.5t-18 6.5q-99 25 -230 -24q-103 -39 -235 -117q-194 -116 -433 -320q-288 -245 -542 -526q-118 -131 -248 -291q-17 -22 -49.5 -64t-48.5 -63q-1 -1 -8 -11t-13 -16t-12 -10q-8 -4 -15.5 3.5t-5.5 15.5q1 10 21 49
q95 191 264 498q164 302 272 495q67 128 140 224q25 31 32 36q8 5 10.5 0t0.5 -14q-5 -24 -47 -100q-160 -300 -609 -1088q30 35 183 215q400 456 790 770q125 102 230.5 176t214.5 129q144 74 243 76q67 0 111 -24zM1212 -164h23q1 -1 -2 -3t-7 -3.5t-5 -1.5q-24 -5 -54 -2
q-49 5 -112 41q-90 55 -183 182q-73 104 -122 223q-61 144 -64 260q0 30 8 54q15 30 31 26q11 -4 2 -47q-5 -72 25 -188q34 -125 100 -246q163 -302 360 -295z" />
    <glyph glyph-name="L" unicode="L" horiz-adv-x="978" 
d="M985 1329q15 15 15 -6q0 -9 -3 -16q-21 -59 -53 -128.5t-52.5 -109t-68.5 -127t-61 -111.5q-128 -215 -301 -460q-146 -205 -279 -353q152 41 267 56q131 19 249 2q113 -16 150 -84q5 -9 10 -24t0 -15q-1 0 -3.5 5t-6.5 12t-6 10q-31 40 -90 53q-63 16 -170 16
q-188 -3 -426 -59q-24 -28 -35 -39q-91 -91 -199 -135q-36 -16 -59 -11q-13 3 -18.5 14t-0.5 25q18 40 88 78q95 52 211 84q69 78 138 172q144 194 307 463q58 91 117.5 196t130.5 236.5t110 200.5q24 40 39 55zM-33 -78q-69 -30 -102 -76q-10 -21 -2 -24q33 -5 84 22
q80 41 172 133q-80 -21 -152 -55z" />
    <glyph glyph-name="M" unicode="M" 
d="M1430 1354q4 5 13 2t9 -13q0 -6 -6 -18q-30 -59 -131 -235q-197 -343 -271 -482q-164 -306 -227 -497q-28 -92 -12 -129q16 -39 86 -5q85 38 207 152q33 30 91.5 90.5t67.5 69.5q1 1 7 5q14 11 14 7q-2 -3 -21 -29q-47 -54 -83 -90q-131 -131 -208 -186
q-149 -105 -186 -23q-15 38 -2 103q28 142 140 387q107 225 260 479q62 107 178 293q-58 -70 -60 -72q-84 -104 -151 -194q-212 -276 -305 -402q-43 -56 -125.5 -166t-150 -196.5t-132.5 -161.5q-41 -35 -51 2q-2 16 6 49q25 99 62 189q70 195 217 514q18 43 116 258
q-51 -66 -151 -205q-183 -245 -345 -435t-339 -352q-90 -81 -163.5 -136.5t-152.5 -92.5q-100 -47 -163 -33q-16 3 -19 11q-2 5 8 8q11 4 37 8q38 6 80 18q105 31 231 123q95 67 201 170q164 162 369 412q193 236 334 442q74 110 137 211q9 14 24.5 10t12.5 -22
q-36 -94 -78 -193.5t-100.5 -233t-83.5 -190.5q-20 -48 -67.5 -156.5t-80.5 -190.5t-59 -160q122 122 301 360q61 78 170 225t135 181q132 175 342 440q8 9 21 25.5t24.5 30t22.5 24.5z" />
    <glyph glyph-name="N" unicode="N" horiz-adv-x="1114" 
d="M2273 1393q11 -11 8 -15q-2 -2 -18 6q-93 49 -211 21q-116 -26 -246 -100q-223 -128 -411 -325t-334 -437q-103 -166 -232 -457q-19 -51 -34 -78q-6 -9 -14 -13t-17 5q-4 6 -4 27q2 96 33 270q53 290 122 545q6 20 70 260q-121 -179 -174 -252q-179 -256 -330 -447
q-195 -243 -366 -399q-101 -94 -181 -141q-67 -36 -106 -47q-25 -6 -53 -2q-33 6 -33 24q0 5 3 7.5t9 3.5t10 1.5t11 0t8 -0.5q23 0 55 7q58 14 117 51q97 57 205 162q159 151 364 415q162 205 326 455q84 131 141 229q14 23 27 19q16 -4 12 -35q-15 -79 -36 -173
t-35.5 -157.5t-42.5 -177.5t-39 -162q-67 -286 -80 -399q109 230 118 246q85 172 197 332q154 222 350 409q236 228 436 320q111 52 213 55q59 3 115 -21q30 -15 47 -32z" />
    <glyph glyph-name="O" unicode="O" horiz-adv-x="923" 
d="M1855 1360q6 -1 -12 -14q-63 -39 -110 -62q-218 -107 -484 -170q-63 -15 -100 -22q10 -82 -16 -199q-27 -116 -97 -246q-128 -233 -331 -420q-111 -99 -211 -161q-146 -89 -248 -91q-53 -2 -99.5 23t-72.5 70q-30 61 -33 133q-8 155 80 350q98 219 266 399q83 90 164 146
q74 51 131 63q34 0 16 -12q-105 -62 -176 -125q-79 -68 -160 -162q-176 -212 -251 -424q-42 -106 -45 -211q-4 -118 55 -180q37 -39 97 -45t110 14q96 34 223 133q189 153 358 390q192 271 209 485q3 30 0 65q-173 -27 -270 -12q-79 13 -84 66q-2 50 65 94q59 39 115 47
q73 11 119 -22q68 -53 82 -150q13 2 36 7t33 7q250 61 469 156q22 10 69.5 33t70.5 33q3 1 14.5 7t17.5 7zM948 1083q65 2 168 21q-11 105 -80 147q-58 25 -123 6t-112 -67q-29 -29 -21 -57q8 -24 40 -35.5t56.5 -13t71.5 -1.5z" />
    <glyph glyph-name="P" unicode="P" horiz-adv-x="841" 
d="M299 1223q-253 -110 -405 -305q-24 -31 -54.5 -87t-23.5 -83q2 -15 16 -25q25 -16 23 -23q-3 -12 -29 -6q-13 3 -27 13q-24 17 -25.5 48t8 56.5t25.5 50.5q34 60 109 135q180 177 453 271q271 91 514 71q39 49 45 56q8 8 19.5 14t15.5 -4q0 -9 -7 -23q-4 -9 -24 -49
q138 -21 221 -86q52 -41 75 -101.5t11 -125.5q-35 -159 -201 -311q-201 -179 -463 -240q-88 -21 -159 -18q-73 -122 -131 -215q-106 -174 -179 -279q-12 -16 -16 -16q0 8 10 28q25 56 83 158.5t65 116.5q62 105 123 213q-18 3 -39 10q-70 25 -76 86q-3 25 12 55q1 3 6 11
t11 15.5t8 6.5q1 -1 -2.5 -8.5t-8.5 -17t-6 -13.5q-11 -26 -8 -49q6 -44 51 -64q27 -12 62 -18q22 40 68 120l69 120q61 104 260 448q43 77 92 158q-303 27 -571 -94zM1128 881q84 128 64 227q-23 105 -164 168q-54 21 -110 33q-15 -27 -47 -82t-48 -82q-23 -39 -115 -198.5
t-143 -244.5q-31 -54 -139 -233q34 0 100 8q229 45 432 213q106 88 170 191z" />
    <glyph glyph-name="Q" unicode="Q" horiz-adv-x="995" 
d="M98 49q22 -38 58.5 -58.5t76 -20.5t82.5 10q109 29 234 124l37 31q-76 49 -154 60q-56 5 -70 12q-21 9 9 22l12 4q22 3 43 0q98 -12 186 -77q152 130 301 327q92 128 144 230q144 278 45 446q-30 50 -81.5 80t-113 38.5t-119.5 5.5t-116 -15q-226 -49 -473 -215
q-182 -126 -383 -330q-4 -4 -17 -18t-23 -23t-20 -16q-3 -2 -2 1q3 6 6 9q7 11 29 37q72 80 172 170q215 191 426 297q264 140 487 127q129 -7 207 -74q79 -67 95 -174q23 -148 -64 -340q-76 -165 -211 -326q-121 -146 -260 -256q152 -113 299 -295q113 -142 170 -231
q4 -10 1 -11.5t-9 7.5q-9 12 -53.5 70t-62.5 80.5t-53 63.5t-65 73q-124 134 -254 223l-67 -49q-43 -29 -84 -51.5t-97 -43t-103 -25t-95 13.5t-80 63q-66 90 -43 251q14 114 76 242q102 208 295 397q93 90 194 152q76 47 119 51q15 0 14 -3l-4 -3q-6 -3 -18.5 -10
t-18.5 -10q-98 -57 -202 -154q-90 -78 -170 -174q-100 -122 -154 -221q-75 -140 -98 -252q-31 -150 20 -242z" />
    <glyph glyph-name="R" unicode="R" horiz-adv-x="1124" 
d="M1245 969q-57 -192 -270 -353q-141 -109 -342 -190q66 -41 139 -121q92 -99 162 -213q78 -123 117 -211q32 -69 41 -104q4 -9 12.5 -46t3.5 -38q-3 0 -7 10t-7.5 22t-3.5 13q-82 220 -248 444q-95 130 -178 193q-32 25 -60 39l-18 -6q-17 -7 -49 -16.5t-77 -20.5
t-74.5 -6t-25.5 30q3 17 29.5 34.5t50.5 25.5q74 26 164 -15q47 22 103 52q263 140 403 331q98 132 96 234q0 75 -63 131q-111 96 -326 100q-30 -51 -91 -155.5t-91 -155.5q-230 -390 -277 -467q-191 -308 -274 -434l-61 -92q-7 -11 -21 -29l-4 -5q-5 -6 -8.5 -9t-3.5 0
q0 2 14 36q22 44 27 52l55 98q23 40 344 584q188 316 338 579q-50 0 -102 -6q-179 -18 -349 -84q-289 -116 -428 -299q-2 -3 -10.5 -14t-11 -15t-10.5 -14.5t-10.5 -15.5t-8 -15t-7.5 -16.5t-5.5 -16t-4 -17t0 -16.5t2.5 -18q2 -8 9 -15.5t10.5 -9.5t15.5 -9q20 -10 -1 -16
q-9 -2 -16 -1q-23 3 -41 25q-33 40 2 117q42 91 164 190q96 76 223 139q252 120 523 144l69 6q25 41 53 63q7 7 16.5 11.5t14.5 -3.5q0 -12 -8 -28q-4 -7 -12.5 -21.5t-12.5 -21.5q223 -4 338 -88q58 -45 79 -115.5t-1 -140.5zM467 393q40 9 106 35q-58 23 -110 10
q-55 -13 -78 -43q-10 -13 34 -10q30 3 48 8z" />
    <glyph glyph-name="S" unicode="S" horiz-adv-x="1007" 
d="M1049 463l27.5 -11t45 -20t21.5 -14q-1 -1 -22 6.5t-45 17t-25 9.5q-48 16 -107 26q6 -81 -35 -164q-50 -102 -164 -194q-112 -90 -223 -139q-127 -57 -260 -72q-166 -18 -227 43q-25 25 -27.5 59t9.5 63.5t34 59.5q58 80 152 148q220 170 487 211q116 17 209 6
q-6 33 -22 64.5t-32 53t-47.5 50t-48 41t-56 41t-50.5 36.5q-137 99 -137 207q3 98 98 201q88 91 211 137q163 59 256 -2q50 -34 64 -96.5t-7 -116.5q-19 -59 -60.5 -106.5t-98.5 -75.5q-65 -31 -115 -21q-19 6 -12 15q3 4 20 10q8 3 25.5 7t25.5 7q137 43 187 152
q27 48 19.5 109.5t-52.5 93.5q-88 64 -246 -2q-128 -53 -207 -154q-95 -126 -53 -213q10 -19 25 -38t28 -32t34.5 -30.5t33.5 -26t38.5 -27t35.5 -24.5q174 -127 188 -266q41 -7 105 -29zM780 190q131 149 121 291q-180 18 -362 -43q-133 -46 -240 -112q-132 -84 -203 -166
q-123 -145 -35 -205q46 -31 125 -31q70 0 138 15q273 59 456 251z" />
    <glyph glyph-name="T" unicode="T" horiz-adv-x="522" 
d="M713 1153q12 9 18 5t2 -19q-1 -4 -41 -86q-356 -680 -540 -1014q-11 -18 -32 -56.5t-39 -67.5t-36 -54q-12 -16 -14 -13q-1 4 12 37q36 88 92 195q198 392 514 987q27 61 64 86zM1735 1249q2 -1 10 -4t14.5 -6t7.5 -6q-10 0 -22 4q-142 44 -291 59q-169 22 -379 15
q-272 -9 -553 -76q-131 -29 -266 -84q-75 -32 -128.5 -63.5t-90.5 -77.5q-40 -46 -43 -101q0 -20 -4 -28q-6 -17 -20 11l-3 7q-9 26 -2 59q8 47 58 97q69 72 227 135q229 90 524 123q276 36 537 18q209 -16 370 -63q9 -3 27 -9.5t27 -9.5z" />
    <glyph glyph-name="U" unicode="U" horiz-adv-x="1075" 
d="M1395 1278q2 -3 2.5 -6.5t-1 -8.5t-3.5 -10t-6 -11t-7.5 -11.5t-9.5 -13l-10 -12.5t-10 -13l-9 -12q-127 -166 -161 -217q-79 -119 -140 -230q-124 -234 -217 -489q0 -1 -7 -20.5t-11.5 -35t-11.5 -40t-10 -44.5t-4 -40t4 -34t16 -20q20 -11 59 8q32 17 65.5 44t53.5 47
t56.5 59.5t51.5 54.5q4 4 12 13t13 14q4 4 5 1t-1 -5q-79 -103 -145 -164q-13 -12 -26 -23t-35 -28t-41.5 -26t-40 -14t-36.5 4t-24 32q-14 39 4 127q72 318 252 616q1 1 45 76q-187 -240 -362 -440q-10 -11 -44 -50.5t-46.5 -53.5t-43.5 -49t-48 -52l-46.5 -46.5t-52 -48
t-51 -41t-56.5 -40.5q-134 -91 -211 -82q-32 4 -48 30.5t-14.5 57.5t5.5 59q18 82 59.5 175t74.5 150.5t96 159.5q56 87 170.5 239.5t158.5 215.5q68 100 90 152q15 34 0 54t-49 23.5t-63.5 2t-55.5 -6.5q-120 -19 -260 -77q-130 -57 -233 -125q-237 -150 -371 -357
q-2 -3 -9.5 -15.5t-12.5 -18.5q-21 -29 -21 -8v3q3 25 41 84q56 82 156 168q73 65 160 123q248 165 485 230q56 15 135 22q86 4 117 -27q36 -33 -21 -155q-11 -21 -22 -41t-25 -43t-24 -39t-27.5 -41.5t-25 -37.5t-28.5 -41t-26.5 -37t-29 -41t-27.5 -38
q-115 -161 -193 -283.5t-137 -250.5q-9 -18 -20.5 -48t-23.5 -70t-9.5 -73t22.5 -43q16 -5 34 -4.5t31.5 3t34 11t30 13.5t30.5 16q97 57 209 166q155 147 362 410q52 65 108.5 138.5t125.5 164.5t106 139q86 115 148 187q3 4 11 13t12.5 14.5t11.5 13.5t12.5 12t11 7t10 3
t7.5 -4z" />
    <glyph glyph-name="V" unicode="V" horiz-adv-x="679" 
d="M1898 1389q12 -10 -5 -8q-3 0 -17 3q-60 13 -111 13q-118 -5 -252 -76q-193 -98 -434 -324q-186 -173 -360.5 -371t-376.5 -454q-94 -123 -174 -217q-1 -1 -8.5 -9t-13 -13t-13.5 -11.5t-15 -9t-12 -0.5q-6 3 -8.5 11t-1.5 20t2 22t3.5 21t2.5 14q20 101 82 262
q43 111 103 256q86 213 297 621q2 5 8 17q10 21 15 32.5t11.5 31t5 30.5t-6.5 23t-21.5 16.5t-42.5 2.5q-43 -4 -125 -32q-236 -81 -465 -250q-115 -90 -190 -179q-97 -112 -117 -213q-6 -27 -6 -57q0 -37 -6 -45q-6 -9 -14.5 3.5t-12.5 23.5q-8 21 -4 55q9 93 109 213
q136 163 409 326q130 78 242 125q174 72 250 53q27 -9 36.5 -35.5t1.5 -61t-18 -62t-24 -54.5q-229 -450 -355 -760l-48 -120t-59.5 -156.5t-37.5 -124.5q26 25 51 54.5t57 69.5t47 58q265 331 408 493q200 234 377 400q244 229 432 330q210 115 358 65q34 -11 47 -22z" />
    <glyph glyph-name="W" unicode="W" horiz-adv-x="1222" 
d="M2386 1397q15 -9 -9 -9q-3 0 -11 1h-7q-134 10 -241 -21q-108 -29 -238 -115q-174 -116 -385 -360q-119 -137 -338 -438q-147 -203 -164 -226q-103 -139 -174 -213q-39 -42 -88 -79q-31 -26 -51 -15q-7 4 -10.5 21.5t-1.5 31.5q4 65 37 191q70 231 182 524
q91 240 186 477q-41 -40 -82.5 -89.5t-92 -115t-75.5 -96.5q-117 -151 -256 -338q-192 -259 -329 -448q-22 -27 -59.5 -79t-53.5 -73q-10 -10 -16 -8q-16 6 -13 19q1 8 23 51q50 110 154.5 316t150.5 304q7 15 55.5 117t65 139t47.5 112t51 136q27 71 2.5 104t-108.5 19
q-102 -19 -238 -102q-99 -59 -203 -150q-4 -4 -42.5 -40t-74 -69t-36.5 -32t13 19.5t17 21.5q85 95 197 180q191 140 342 182q72 18 123 6q31 -8 45 -36t12 -64q-5 -71 -82 -256q-74 -184 -239 -498q-37 -75 -185 -346q35 45 41 53q148 195 176 234q165 221 390 512
q169 223 278 354q31 37 49 25q5 -4 7 -10.5t0.5 -15.5t-3 -15t-5.5 -16.5t-5 -12.5q-12 -34 -26.5 -72.5t-32 -85t-27.5 -73.5q-106 -275 -219 -596q-64 -182 -88 -268q-25 -98 -25 -121q16 3 58 39q76 63 180 200q89 115 166 226q258 349 336 444q206 248 379 385
q205 157 395 178q68 7 123 -4q38 -8 53 -16z" />
    <glyph glyph-name="X" unicode="X" horiz-adv-x="1521" 
d="M2111 1403q22 4 55.5 3.5t33.5 -7.5q0 -1 -6 -1.5t-16.5 -1t-16.5 -1.5q-66 -8 -150 -52q-94 -47 -184 -118q-150 -118 -393 -365q-49 -49 -146.5 -148.5t-146.5 -148.5q0 -21 -1.5 -91.5t-2 -104t0.5 -88t5 -99.5q8 -81 24 -129q21 -69 66 -76q40 -6 108 48
q71 59 170 190q4 6 17.5 22.5t27.5 33.5t15 16q1 -2 -4.5 -10.5t-11.5 -18t-7 -10.5q-98 -149 -192 -236q-63 -55 -111 -57q-22 -1 -40.5 7t-31.5 26.5t-22.5 34.5t-17 44t-11 41t-8.5 39q-23 121 -27 369q-240 -234 -331 -311q-87 -73 -144.5 -117.5t-144 -95.5t-168.5 -80
q-123 -45 -188 -2q-26 20 -21 29q5 8 35 0q59 -13 104 -11q89 7 205 68q97 53 189 123q31 23 64 49.5t58 47.5t62 55t55 50.5t59.5 57t53.5 52t58.5 58.5t53.5 54q1 54 5 203t4 231q0 8 0.5 43.5t0 50t-2.5 45t-5.5 47t-11 37t-18.5 33.5q-62 77 -244 -4q-99 -43 -221 -142
q-128 -103 -211 -227q-44 -68 -53 -102q-8 -22 -11 -54q-4 -17 -14 2l-4 9q-15 43 23 118q31 57 73 105q82 98 195 178q127 93 233 135q176 69 246 -4q20 -21 33.5 -49.5t20 -66.5t8.5 -63t4 -69q10 -213 4 -403q176 180 262 272q81 86 126 132.5t117.5 115t137.5 119.5
q115 89 211 133q74 32 116 37z" />
    <glyph glyph-name="Y" unicode="Y" horiz-adv-x="874" 
d="M983 690q-228 -361 -266 -418q164 82 248 119q10 4 28 11.5t44 18t44.5 17t18.5 4.5q0 -1 -2.5 -3t-7.5 -4.5t-11.5 -5.5l-13 -6t-11.5 -5t-9 -4t-5 -2q-23 -9 -84 -39q-38 -17 -81 -38.5t-95.5 -49t-81.5 -41.5q-25 -41 -74 -115t-67 -102q-119 -179 -176 -258
q-81 -114 -166 -205q-112 -122 -203 -180q-74 -45 -116 -41q-26 3 -41.5 23t-18.5 48q-7 96 84 236q119 179 387 370q152 111 326 205q110 180 311 496l123 184q-14 -15 -65.5 -74t-79.5 -90q-226 -248 -402 -370q-27 -18 -59.5 -37t-81.5 -44t-93 -36.5t-84 -12t-64 26
t-25 80.5q2 30 6.5 58.5t16 60t18.5 53t27.5 56.5t27.5 49.5t34.5 53.5t32.5 46.5t36.5 51t33.5 46.5q26 34 84.5 105.5t87.5 111.5q2 3 16 21.5t17 23.5t15 22t16.5 24.5l13.5 22.5t14 25.5t11 24.5t10 27q6 23 -3 37.5t-30.5 19t-45.5 5t-53 -4t-47.5 -8.5t-33.5 -8
q-146 -37 -279 -107q-120 -61 -225 -147q-130 -107 -172 -236q-3 -8 -8 -26t-8 -27q-3 -11 -9.5 -13t-11.5 11q-14 42 19 111q47 96 172 190q101 80 225 143q130 68 244 105q81 26 131 33q92 13 133 -11q46 -25 22 -94q-19 -56 -57 -117q-54 -86 -164.5 -233t-155.5 -215
q-16 -24 -31.5 -51t-41.5 -75t-38.5 -88.5t-17.5 -79.5t16.5 -60.5t67.5 -20.5q96 9 242 94q97 60 211 162q157 141 371 395q13 16 59.5 72t71.5 88q25 31 82.5 106.5t89.5 114.5q26 33 37 37q9 2 16 -4q5 -4 5.5 -9t-3 -11t-6.5 -9.5t-10 -11.5t-9 -10q-51 -61 -94 -121
q-114 -160 -309 -467zM342 -221q86 125 270 416q-141 -82 -250 -158q-258 -177 -391 -354q-90 -120 -106 -234q-5 -52 12 -67q25 -25 92 12q85 48 199 170q97 105 174 215z" />
    <glyph glyph-name="Z" unicode="Z" horiz-adv-x="1015" 
d="M1337 1288q8 -8 -1.5 -20t-20.5 -19q-304 -210 -441 -321l-442 -344q-289 -222 -428 -353q-56 -53 -91 -88t-76.5 -88.5t-67.5 -105.5q-1 -7 8 -9.5t25 -0.5t30.5 4.5t29 6t15.5 3.5q45 11 134 37t134 37q146 39 263 55q279 36 464 -12q26 -7 46 -15q1 -1 5 -2l7 -4h-2
q-17 2 -49 7t-48 7q-131 16 -241 11q-220 -7 -518 -90q-38 -8 -124.5 -33t-131.5 -33q-46 -5 -60 4q-19 13 -6 43q14 38 66 107q52 68 124 142t123.5 120.5t141.5 124.5q140 118 436 350q248 197 457 328q25 17 102.5 62.5t116.5 76.5q-59 2 -180 -6q-101 -6 -193 -21
q-204 -27 -364 -88q-62 -24 -128.5 -66.5t-101.5 -88.5q-8 -11 -37 -45q-9 -10 -17 -11t-11 13q-2 41 57 100q47 41 109 70q105 53 249 86q116 26 271 47q207 26 342 28q18 0 24 -6z" />
    <glyph glyph-name="bracketleft" unicode="[" horiz-adv-x="880" 
d="M662 1190q27 21 28 7q0 -3 -2 -9q-33 -67 -156 -275q-45 -80 -135 -240.5t-135 -240.5q-159 -294 -180 -339q-42 -89 -21 -95q49 -13 160 18q100 29 187 64q15 6 16 2q-2 -5 -16 -12q-72 -34 -187 -68q-173 -50 -188 -4q-9 26 26 104q15 36 30 71t36 77.5t32.5 66.5
t39.5 76l35 65t40.5 75t36.5 67q170 306 281 494q35 62 72 96zM1042 1284q152 0 152 -10q0 -6 -41 -6q-168 0 -252 -4q-254 -17 -442 -80q-2 0 -12 -2t-18 -3.5t-17 -2t-13.5 1t-3.5 6.5q1 7 23 18q102 35 237 55q171 27 387 27z" />
    <glyph glyph-name="backslash" unicode="\" horiz-adv-x="815" 
d="M29 1290q28 -18 67 -80q252 -444 436 -997q45 -136 60 -215q1 -4 6 -29q3 -11 -1 -16q-1 -2 -4 3q0 1 -1 3q-26 51 -37 98q-79 221 -180 475q-183 437 -342 713q-23 28 -25 41q-3 11 7 10q7 -1 14 -6z" />
    <glyph glyph-name="bracketright" unicode="]" horiz-adv-x="917" 
d="M1059 1249q1 -10 2 -15t-3.5 -20.5t-7.5 -23l-9 -22.5t-7 -19q-65 -164 -246 -496q-135 -243 -276 -483q-32 -59 -68 -92q-29 -21 -29 -9q0 3 1 7q22 51 75.5 142t59.5 101q33 57 270 478q177 329 191 356q1 3 6 13.5t9.5 20.5t9.5 21.5t7 20.5t0 12q-5 12 -55 4
q-95 -11 -291 -76q-21 -7 -22 -3l4 5q155 71 281 89q85 14 98 -11zM12 -6q90 20 135 24q99 11 269 11q41 0 99.5 -3.5t66.5 -7.5q11 -6 -8 -8q-10 -2 -17 -2q-23 0 -69 1t-70 1q-155 -3 -268 -16q-29 -4 -74.5 -14.5t-48.5 -10.5q-20 -4 -33 -4q-19 0 -19 6q3 17 37 23z" />
    <glyph glyph-name="asciicircum" unicode="^" horiz-adv-x="368" 
d="M352 1352q1 -1 5.5 -4t9 -5.5t4.5 -3.5q0 -5 -9 -2q-23 10 -35 22.5t-28 37.5q-36 56 -53 96q-84 -44 -92 -47q-5 -2 -35.5 -15.5t-50.5 -21.5t-50.5 -16t-35.5 0q36 10 120 51q37 20 142 80q6 4 16.5 3.5t13.5 -7.5q2 -7 -4 -13q4 -9 11.5 -28.5t11.5 -28.5
q1 -2 4.5 -10t4.5 -11t4.5 -10.5t5 -11t5 -10t6 -10.5t6.5 -9.5t7 -9.5t7.5 -8.5t8.5 -7.5z" />
    <glyph glyph-name="underscore" unicode="_" horiz-adv-x="999" 
d="M686 18q22 0 63 -14q18 -6 7 -8q-16 -4 -33 -4q-234 24 -590 -15q-37 -3 -36 4q0 2 5 5q10 10 48 14q192 27 423 27q67 0 113 -9z" />
    <glyph glyph-name="grave" unicode="`" horiz-adv-x="509" 
d="M377 555q2 -1 9.5 -2.5t13.5 -3t6 -2.5q0 -4 -26.5 0t-35.5 8q-36 10 -88.5 43t-75.5 72q-8 13 1 25t18 -5q60 -94 178 -135z" />
    <glyph glyph-name="a" unicode="a" horiz-adv-x="509" 
d="M606 352q7 7 9 4q0 -1 -1 -4q-6 -10 -14.5 -20t-21 -22.5t-17.5 -18.5q-59 -59 -88 -90l-30 -30l-33 -33t-29.5 -28.5t-35 -32.5t-31 -26.5t-35.5 -27.5q-8 -6 -18 -11.5t-21 -9t-18.5 2t-8.5 20.5q-2 34 29 102q15 30 39 74q-65 -65 -156.5 -134t-144.5 -69
q-33 0 -43.5 27.5t-4.5 62.5q7 51 45 121q71 122 175 192q138 91 239 72q55 -8 72 -49q7 -29 -4 -33q-3 -1 -6.5 0t-6 5t-4 6.5t-4 7.5t-2.5 6q-19 29 -52 38.5t-64 4t-64 -20.5q-80 -34 -162 -127q-63 -74 -114 -190q-44 -102 8 -98q62 5 150.5 74t146.5 139q54 62 59 69
q1 2 1.5 3.5t2 4t1 3t-0.5 1.5q18 22 39 35q4 2 9 3.5t10.5 2t9.5 -2.5t4 -9q-2 -13 -23 -45q-14 -23 -51.5 -79t-61.5 -98.5t-42 -84.5q-4 -8 -4 -16q13 0 47 24q19 14 57 47q59 52 113 107q15 16 45.5 47.5t46.5 46.5q31 31 47 45z" />
    <glyph glyph-name="b" unicode="b" horiz-adv-x="536" 
d="M-76 37q1 4 37 78q63 131 234 456q176 332 272 494q25 41 47 59q12 12 26 13q10 0 3 -15q-119 -205 -242 -442q-234 -434 -295 -541q12 16 38 52t42 57.5t40.5 50t45.5 49.5q116 116 205 125q33 3 60.5 -9t37.5 -38q11 -43 1.5 -85t-30.5 -79q22 0 68 -4q61 -7 81 -18
q4 -2 3 -4q-3 -2 -15 -0.5t-28.5 4t-17.5 2.5q-49 6 -99 6q-52 -87 -135 -158q-57 -48 -122.5 -80t-108.5 -20q-20 7 -22 26.5t5.5 36.5t18.5 33q32 48 90 90q101 70 227 82q64 114 39 166q-22 38 -94 18q-56 -18 -115 -67q-31 -25 -67 -65t-53 -62t-56 -74
q-14 -17 -100 -133q-19 -26 -23 -27q-2 -1 -2.5 1.5t0.5 7t2 8t2 6.5zM342 186q4 5 41 58q-64 -6 -125 -31q-90 -40 -149 -107q-49 -55 -43 -86q6 -29 81 -4q95 37 195 170z" />
    <glyph glyph-name="c" unicode="c" horiz-adv-x="401" 
d="M483 338q24 24 29 24q-15 -22 -23 -32q-80 -90 -147 -152q-53 -50 -123 -104q-80 -59 -131 -74q-77 -20 -115 23q-26 32 -22 90q7 106 119 225q111 115 213 137q68 15 100 -22q19 -28 17 -58t-19 -59q-16 -30 -42.5 -48.5t-57.5 -17.5q-8 0 -12.5 5t1.5 14q4 4 9.5 6
t13 4.5l10.5 3.5q66 32 78 92q5 24 -5.5 43t-33.5 25q-33 10 -82 -10q-64 -28 -143 -115q-106 -114 -125 -227q-12 -85 49 -95q47 -7 117 33q78 44 204 166q44 41 84 84q6 6 18.5 19.5t18.5 19.5z" />
    <glyph glyph-name="d" unicode="d" horiz-adv-x="548" 
d="M852 1147q9 7 15 7t3 -11q-2 -8 -12 -29q-53 -102 -113.5 -214t-136.5 -250t-116 -212q-39 -75 -116.5 -215.5t-105.5 -193.5q2 -1 3.5 -1.5t6.5 1.5t8 3.5l7 3.5l4 3q13 9 27 20t24 20t25.5 23t23.5 21q41 36 95 90q4 3 42.5 41t73.5 72t37 32q5 -5 -88 -98
q-14 -14 -39 -39.5t-45.5 -46t-38.5 -37.5q-96 -92 -141 -121q-16 -12 -33 -12q-13 0 -16 16t2 27q17 48 60.5 130.5t51.5 98.5q-89 -118 -213 -206q-100 -73 -147 -76q-43 -2 -57 41q-15 49 12 125q18 53 65 114q81 112 199 172q35 18 68 27t69.5 0.5t51.5 -45.5
q8 -19 8 -45q17 31 47 87t41 77q139 255 287 520q31 56 61 80zM182 119q114 96 172 180q30 44 35 70q13 79 -41 92q-45 9 -115 -29q-93 -54 -184 -184q-40 -56 -63 -115q-31 -83 -9 -108q17 -18 63 1.5t82 45t60 47.5z" />
    <glyph glyph-name="e" unicode="e" horiz-adv-x="395" 
d="M489 356q0 -8 -22 -34q-87 -96 -115 -123q-111 -107 -209 -164q-37 -22 -72 -34.5t-74.5 -4t-57.5 50.5q-24 63 24 164q37 79 121.5 153t157.5 103q53 20 82 8q41 -15 34 -63q-6 -42 -47 -80q-52 -46 -141 -85t-158 -40q-42 -82 -35 -137q8 -33 29 -41q40 -14 121 18
q88 40 213 158q1 1 40.5 42t73.5 75.5t35 33.5zM229 446q-107 -58 -182 -178q-22 -36 -29 -49q29 0 62 10q145 44 219 133q7 9 14 20.5t13.5 26t6.5 28t-9 22.5q-27 25 -95 -13z" />
    <glyph glyph-name="f" unicode="f" horiz-adv-x="266" 
d="M666 1176q18 -15 18 -48q0 -39 -35 -124q-44 -99 -160 -256q-93 -130 -192 -234q-49 -54 -193 -192q-59 -120 -92 -195q47 37 187 133q2 1 19.5 12t39 24t43.5 26.5t37 22t16 7.5q2 -3 -32 -26.5t-73 -49.5l-42 -28q-110 -75 -209 -152q-14 -29 -47.5 -99.5t-52.5 -109.5
t-48 -96t-55 -104q-65 -127 -143 -226q-112 -136 -174 -145q-32 -4 -43 21t-6 57q6 42 43 117q51 102 141 221q134 180 317 327q81 173 95 199q82 172 125 256q59 113 90 171.5t85 149.5t105 162q37 47 56 70.5t56 59t68 51.5q32 16 56 -2zM657 1110q6 45 -14 47
q-22 2 -51 -22q-78 -62 -172 -209q-49 -78 -135 -238q-64 -121 -166 -334q62 59 121 121q150 156 258 313q81 120 116 195q37 79 43 127zM-207 -223q23 47 65 134l56 116q-156 -134 -270 -279q-87 -112 -138 -207q-70 -142 -55 -188q10 -35 55.5 0t81.5 80q29 35 74 104
q54 86 131 240z" />
    <glyph glyph-name="g" unicode="g" horiz-adv-x="487" 
d="M575 348l23 13v-1q-4 -6 -13 -15.5t-22.5 -21.5t-19.5 -18q-17 -15 -189 -160q-17 -15 -51.5 -44.5t-52.5 -45.5q-65 -126 -127 -237q-60 -105 -93 -159.5t-94 -136.5t-122 -138q-62 -58 -101 -68q-36 -8 -51 12q-12 19 -8 54q5 37 49 118q33 56 74 109q51 65 180 194
q95 92 207 193q18 31 49 95t49 95q-87 -97 -215 -172q-68 -38 -98 -24q-46 20 -25 108q13 53 53 121q74 121 185 189q134 87 231 65q26 -5 48 -21t28 -40q3 -13 -5 -22q-6 -6 -13 3q-3 5 -8 13.5t-10 15.5t-11 12q-65 60 -195 -8q-81 -45 -174 -170q-44 -61 -69.5 -109
t-34.5 -102q-3 -38 31 -35q19 2 53 19q50 23 106 69q98 76 174 178q31 43 54 66q19 19 24 14t-4 -26q-9 -25 -119 -242q118 105 271 231q30 25 36 29zM6 -295q38 65 141 258q-84 -76 -182 -174q-112 -112 -176 -199q-37 -48 -74 -114q-32 -68 -34 -100q-1 -12 0 -23
q2 -9 8 -11.5t16 1.5t18 8t20 12.5t15.5 11.5l10.5 9q43 38 88 96q58 73 149 225z" />
    <glyph glyph-name="h" unicode="h" horiz-adv-x="520" 
d="M623 360q2 -1 -8.5 -14t-28 -31.5t-26.5 -27.5l-17 -17q-17 -19 -109 -110q-10 -10 -29.5 -29t-32 -30.5t-30 -27.5t-33.5 -28q-2 -2 -10 -8.5t-14 -11t-15 -11t-16.5 -9.5t-15.5 -4.5t-14.5 2t-10.5 11.5q-3 5 -4 11t-1.5 10.5t0 12t1 11t3 12t3 11t3.5 11t3 9.5
q12 31 64 119q9 14 35 57.5t40 65.5q4 8 14.5 26.5t16.5 32.5t8 29q-1 5 -3.5 8.5t-6.5 4.5t-8.5 1t-11 -1t-11 -2.5t-11.5 -4t-10 -4t-8.5 -4t-6.5 -2.5q-46 -20 -111 -74q-94 -73 -182 -194q-95 -128 -109 -146q-8 -12 -23 -19q-10 -4 -10 5q0 6 9 24.5t22.5 43t18.5 34.5
q116 229 239 457q95 175 275 500q11 22 36 57q8 8 18 14.5t15 -0.5q0 -11 -16 -43q-16 -31 -65 -128t-79 -150q-21 -40 -63 -119t-64 -119q-37 -69 -111.5 -204.5t-111.5 -204.5q53 72 92 114q48 53 146 124.5t147 66.5q18 -1 27.5 -14.5t9.5 -32.5q2 -44 -41 -119
q-49 -83 -76 -123q-45 -63 -69 -112q-4 -9 -9 -25t-1 -16q26 -5 103 63t132 127q4 3 42 41.5t73 72.5t37 31z" />
    <glyph glyph-name="i" unicode="i" horiz-adv-x="260" 
d="M358 354q5 -5 -55 -65q-96 -100 -188 -176q-2 -2 -15 -12.5t-25 -21t-31.5 -25.5t-34.5 -24.5t-33 -19.5t-28.5 -10t-19.5 4q-24 19 2 80q25 50 56.5 105.5t72 124t60.5 104.5q23 38 51 53q21 7 25 0q1 -6 0.5 -9t-4 -9t-3.5 -7q-29 -54 -116 -197t-125 -224q13 0 29 7
t26 13.5t28 20t23 16.5q65 50 123 102l111 105q2 4 35 36t36 29zM254 655q-12 0 -15 10.5t5 24.5q7 15 21 25t26 10q11 0 14 -11t-4 -26q-8 -14 -21.5 -24t-25.5 -9z" />
    <glyph glyph-name="j" unicode="j" horiz-adv-x="243" 
d="M338 356l1 -1q-8 -12 -40 -44q-133 -115 -205 -174q-113 -93 -131 -110q-172 -324 -270 -463q-99 -139 -170 -203q-15 -13 -18.5 -16t-18 -14.5t-22.5 -15.5t-21 -9t-25 -6q-33 -3 -42 28t1 58q24 88 134 225q66 83 188 196q60 60 186 170q25 46 76 146t93 175t87 140
q31 47 43 39q9 -6 -8 -39q-31 -70 -98.5 -196.5t-93.5 -180.5q17 16 51.5 46t52.5 45q30 24 88.5 74t87.5 75q61 48 74 55zM-465 -586q30 34 57.5 69.5t59 86t45 73t52 91t44.5 78.5q34 56 74 135q-207 -183 -318 -318q-100 -120 -139 -223q-12 -18 -10.5 -56t35.5 -18
q50 29 100 82zM242 655q-11 0 -14.5 10.5t3.5 24.5q7 15 21.5 25t26.5 10t15 -11t-5 -26q-8 -14 -21.5 -24t-25.5 -9z" />
    <glyph glyph-name="k" unicode="k" horiz-adv-x="477" 
d="M182 268q-83 -79 -176 -209q-1 -2 -7.5 -11.5t-11.5 -16t-12 -14.5t-14.5 -12t-13.5 -3q-28 2 -6 68q23 70 114 252q24 51 73.5 145.5t55.5 105.5q133 248 275 496q51 82 76 107q31 31 36 20q2 -7 -10 -31q-42 -81 -110 -196q-31 -55 -85.5 -152.5t-99.5 -178.5t-84 -153
q-8 -14 -46 -85t-51 -96.5t-41 -80.5t-47.5 -98t-37.5 -88q31 33 33 35l55 67q55 70 119 131q72 70 131 117.5t125 77.5q27 11 45 14q7 3 18 1t4 -11q-3 -6 -9.5 -11t-12 -8t-14 -7.5t-11.5 -6.5q-8 -4 -25.5 -12t-25.5 -12q-121 -59 -209 -144zM580 362q2 -2 -7 -15.5
t-26 -34.5t-32 -39t-31 -36l-15 -18q-105 -126 -162 -174q-59 -47 -96 -37q-34 11 -45 53q-19 68 4 164q8 29 23 41q5 5 11 8.5t13 2.5t10 -9q2 -6 -4 -41q-21 -83 -16 -147q3 -30 17.5 -40t45.5 7q26 17 52.5 40t42.5 39.5t44.5 48.5t41.5 46q10 12 24.5 29.5t40.5 47
t44 48t20 16.5z" />
    <glyph glyph-name="l" unicode="l" horiz-adv-x="227" 
d="M528 1157q23 14 2 -38l-2 -4q-2 -4 -2 -5q-62 -114 -186.5 -344t-187.5 -344q-26 -50 -197 -359q-4 -7 -8.5 -19.5t-3.5 -12.5q4 0 11.5 3.5t15.5 7.5l7 5q13 9 27 19.5t25 19t26.5 22t23.5 20t26 23t23 21.5t25 23.5t23 21.5q4 3 43 41t75 72t38 32q4 -4 -96 -104
q-100 -103 -211 -197q-54 -42 -74 -51q-28 -9 -35 8q-7 22 10 56q33 71 73 148t92.5 173.5t78.5 145.5q37 70 295 538q35 60 63 78z" />
    <glyph glyph-name="m" unicode="m" horiz-adv-x="739" 
d="M-16 190q21 37 66 110t69 116q10 18 38 30q27 12 27 -8q0 -11 -16 -32q-15 -23 -70 -111t-102 -160q3 4 26 32t35.5 42.5t39 45.5t45 50.5t45.5 47t49 45.5t46 36.5t46 29t41 13.5q17 0 22.5 -14t-0.5 -36.5t-15 -46.5t-22 -50t-21 -40.5t-14 -23.5q-17 -29 -67.5 -109
t-73.5 -120q43 44 109.5 127t129.5 153.5t124 114.5q65 48 108 43q46 -13 4 -100q-18 -35 -44 -78t-58 -92t-47 -74q-5 -8 -15.5 -25t-16.5 -27.5t-12 -26t-7 -29.5q3 -10 15 -6.5t21 10.5q48 34 50 36q12 10 25.5 21.5t23 19.5t25.5 23.5t22 21.5t24 25t21 22t23.5 25
t21.5 23q65 73 109 112q8 8 8 6q1 -1 -2 -6q-82 -95 -140 -155q-5 -5 -22 -22.5t-23.5 -24t-22 -22.5t-24 -24t-23 -21.5t-25 -22.5t-24 -19.5t-26.5 -19.5q-43 -27 -53 -29q-14 -1 -22.5 9.5t-10.5 25.5q-2 37 39 116q22 41 76 125t75 121q18 32 25 56q-46 13 -129 -60
q-71 -61 -182.5 -200.5t-137.5 -168.5q-21 -21 -34 -16q-11 4 -11 14q0 15 15 50q21 45 49 96.5t64.5 117t52.5 95.5q36 69 39 78q-45 -7 -116.5 -67.5t-129.5 -125.5t-122.5 -141.5t-76.5 -89.5q-7 -7 -14.5 -16t-10.5 -12.5t-4 -2.5q-3 4 -2 10.5t6.5 19t10.5 21.5
t10.5 18.5t5.5 10.5q10 21 32.5 59t29.5 51z" />
    <glyph glyph-name="n" unicode="n" horiz-adv-x="483" 
d="M-35 190q74 132 137 228q10 17 37 29q27 11 27 -9q0 -11 -16 -32q-16 -23 -65.5 -101.5t-94.5 -146.5q6 6 17.5 18.5t17.5 18.5q94 109 202 194q58 47 107 70q59 26 82 20q11 -3 18 -12q9 -11 10 -25.5t-5.5 -32t-11 -27t-13.5 -26.5q-25 -46 -81 -123.5t-75 -107.5
q-5 -9 -20 -31.5t-24.5 -40.5t-10.5 -30q-3 -16 30 4q46 29 127 106q30 28 172 176q50 50 62 53q-9 -21 -59 -71q-83 -89 -173 -176q-82 -82 -121 -103q-45 -26 -57 4q-12 34 27 115q20 39 70 117q13 20 41 60t40 59q39 61 41 82q-2 8 -17 7t-32 -7q-72 -29 -170 -115
q-76 -64 -270 -287q-7 -8 -14 -16.5t-11 -13.5t-8 -9.5t-5.5 -6.5t-2.5 -1q-7 3 31 80q10 21 32.5 60t28.5 50z" />
    <glyph glyph-name="o" unicode="o" horiz-adv-x="471" 
d="M584 354q-25 -30 -27 -32q-60 -69 -137 -127q-81 -57 -139 -64q-78 -74 -168 -119q-78 -36 -119 -16q-45 22 -41 100q5 111 104 228q77 87 162 133q58 30 103 35q65 8 65 -21q0 -4 -8 4q-22 10 -57 2q-51 -12 -95 -39q-88 -56 -176 -198q-37 -69 -53 -117
q-27 -90 10 -109q36 -18 113 19q52 28 100 76q3 3 11 10.5t12 11.5q-15 1 -28.5 10.5t-18.5 20.5q-19 40 12 123q21 55 76 106q17 16 37.5 29.5t45 24t43.5 1.5t25 -40q4 -23 -5.5 -59t-27.5 -66q-37 -60 -106 -136q67 21 129 70q60 45 129 117q24 24 29 22zM207 170
q13 -25 45 -29q78 84 129 189q8 15 14 32t9 37.5t-9 24.5q-32 15 -98 -41q-51 -44 -74 -98q-36 -74 -16 -115z" />
    <glyph glyph-name="p" unicode="p" horiz-adv-x="538" 
d="M-133 -117q-20 -37 -275 -497q-25 -48 -47 -70q-1 0 -6.5 -5t-10 -7.5t-7.5 0.5q-5 7 2 20q25 52 66 126t57 106q65 130 192 358q119 222 273 500q15 32 47 67q18 19 24 13q4 -4 -2 -21q-29 -59 -88.5 -169t-85.5 -163q58 85 178 211q116 116 207 125q32 3 59.5 -9
t38.5 -40q11 -33 0.5 -76t-34.5 -78q21 0 67 -4q3 0 8.5 -1t12 -2t14 -2.5l15 -3t14.5 -3.5t12 -3.5t7.5 -3.5t2.5 -3q-4 -2 -16 -0.5t-28.5 4t-18.5 2.5q-49 6 -99 6q-51 -85 -133 -158q-55 -49 -108 -73q-79 -43 -125 -27q-20 7 -22 26.5t5.5 36.5t18.5 33q38 52 90 90
q101 70 227 82q43 77 48 112q4 27 -5 46q-22 38 -94 18q-58 -20 -112 -67q-133 -111 -279 -326zM350 199q30 38 41 57q-64 -6 -125 -31q-92 -40 -149 -106q-49 -55 -43 -86q6 -29 82 -4q99 38 194 170z" />
    <glyph glyph-name="q" unicode="q" horiz-adv-x="548" 
d="M659 371q5 1 1 -4q-6 -10 -13 -13q-75 -58 -139 -114q-92 -83 -178 -172q-54 -57 -90 -101q-17 -19 -21 -39q-2 -12 -5 -33t-5 -32q-28 -152 -70 -260q-47 -131 -123 -244q-46 -70 -82 -98q-38 -29 -57 -25q-12 3 -19.5 16t-7.5 27q0 50 27 125q46 122 174 360
q138 240 305 506l-37 -43q-61 -72 -143.5 -139.5t-157.5 -91.5q-33 -10 -58 5t-28 52q-8 113 93 238q81 101 198 158q35 18 67 26.5t67.5 -1t50.5 -46.5q8 -21 8 -59q25 31 59 71q18 22 35 33q16 11 16 -2q-1 -8 -16 -37q-38 -68 -82.5 -140.5t-103 -166.5t-86.5 -139
q11 14 33 35.5t30 31.5q92 98 178 176q14 13 29 26.5t33.5 29t29.5 24.5q70 52 88 60zM205 139q56 48 157 170q36 39 29 101q-3 32 -26 45t-58 8q-55 -11 -117 -55q-93 -70 -170 -193q-41 -70 -53 -121q-10 -27 -2 -55t39 -23q83 14 201 123zM197 -131q1 7 4 32t6 38
q-129 -207 -215 -363q-88 -153 -113 -248q-14 -43 -4 -63q9 -18 37 4q41 29 88 98q76 110 127 240q43 111 70 262z" />
    <glyph glyph-name="r" unicode="r" horiz-adv-x="407" 
d="M487 438q5 -28 -12 -30q-4 0 -9 5.5t-10 13t-7 9.5q-16 19 -41 23q-45 9 -119 -29q-67 -36 -125 -96t-127 -150q-8 -11 -37.5 -54.5t-55 -80t-40.5 -53.5q-8 -8 -10 -2q27 68 72 155.5t69.5 130.5t85.5 150q13 22 37 25q9 0 16 -5.5t4 -13.5q-15 -28 -33 -60t-40.5 -70
t-34.5 -58q112 138 213 201q107 72 176 26q21 -12 28 -37z" />
    <glyph glyph-name="s" unicode="s" horiz-adv-x="309" 
d="M244 274q6 0 27 -1.5t42.5 -5t20.5 -7.5q0 -1 -21 0t-44 2.5t-25 1.5q-31 0 -45 -2q16 -45 4 -90q-14 -58 -62.5 -102t-111.5 -64q-83 -24 -117 2q-39 27 2 101q68 110 231 155q-7 13 -28 42t-30 52t-5 50q9 48 53 71q17 9 38 14.5t43.5 2.5t33.5 -19q8 -18 3 -33.5
t-15 -27.5q-9 -11 -27.5 -22.5t-26.5 -8.5q20 3 45 37q7 9 10 19.5t0 20.5t-16 13q-32 9 -66.5 -10t-41.5 -51q-5 -27 10.5 -50.5t39 -48t30.5 -43.5q16 2 49 2zM160 225q-4 18 -8 27q-137 -35 -205 -123q-60 -75 -31 -104q16 -17 55 -11q22 2 60 19q61 29 98.5 79.5
t30.5 112.5z" />
    <glyph glyph-name="t" unicode="t" horiz-adv-x="243" 
d="M1266 803q92 -23 90 -29q-50 17 -166 25q-248 17 -533 -21q-114 -14 -331 -63q-16 -29 -153 -281.5t-210 -382.5q-11 -23 -10 -24q8 -8 59.5 32t71.5 60q66 58 96 88q4 3 43 40.5t75 71.5t38 33q5 -6 -84.5 -94.5t-118.5 -114.5q-67 -64 -129 -112q-3 -2 -12.5 -8.5
t-15.5 -10.5t-15 -7.5t-16 -2.5q-13 1 -16.5 17t1.5 26q4 19 13 39t22.5 45t18.5 37q47 89 142 266t142 266q-107 -33 -190 -90q-4 -3 -14.5 -11t-17.5 -13t-9 -4q-9 9 -3 22.5t15 22.5q22 26 43 39q68 43 201 77q25 43 68 124t80.5 146t74.5 119q24 24 31 25q14 2 -15 -57
q-25 -48 -88 -164t-96 -180q230 55 529 65q142 6 266 -2q82 -8 123 -14z" />
    <glyph glyph-name="u" unicode="u" horiz-adv-x="524" 
d="M631 358q3 -2 -13 -18q-42 -51 -153 -162q-47 -46 -96 -90q-64 -60 -99 -78q-33 -19 -47 0q-13 13 -4 49q6 25 18 56t20.5 48.5t29.5 57.5t26 49q-89 -116 -172 -182q-54 -47 -106 -74q-51 -27 -80 -12q-28 15 -18 78q9 46 47 121q61 122 151 215q26 29 58 43q18 7 29 1
q5 -6 -1 -14q-10 -12 -44.5 -48t-49.5 -58q-92 -117 -139 -227q-31 -85 -17 -95q28 -12 111 41q91 59 190 174q29 35 80 111q3 3 15.5 22.5t26 41.5t16.5 26q20 27 47 39q16 5 25.5 -3t0.5 -21q-4 -7 -18.5 -26t-22.5 -32q-104 -159 -155 -252q-3 -6 -16.5 -32t-19.5 -43.5
t-7 -36.5q8 -8 48 19t62 46q20 17 111 103q2 2 21.5 22t41.5 42.5t46 46t40 38.5t17 14z" />
    <glyph glyph-name="v" unicode="v" horiz-adv-x="374" 
d="M518 504q1 0 6.5 -4t9.5 -8.5t1 -6.5q-13 9 -15 9q-22 8 -69 -21q-47 -34 -97 -80.5t-82.5 -81.5t-85.5 -94q-32 -35 -87.5 -101t-84.5 -98q-31 -35 -43 -18q-4 6 -4 33q0 34 17 104q30 134 92 254q24 40 43 55q3 3 8.5 7t12 8t12.5 4t8 -6q4 -9 -6 -29
q-56 -103 -58 -108q-58 -128 -96 -291q20 17 40 38t44 50t37 43q22 24 65 73.5t69.5 79t66 69t75.5 69.5q79 67 121 51z" />
    <glyph glyph-name="w" unicode="w" horiz-adv-x="608" 
d="M727 508q6 1 6.5 0t-2.5 -4q-23 -15 -37 -27q-52 -43 -155 -168q-31 -38 -86.5 -107.5t-79.5 -99.5q-5 -6 -20.5 -24t-23.5 -26.5t-21.5 -21t-26.5 -20.5q-25 -17 -43 -4q-12 8 -14 31t4.5 53t12.5 52.5t13 43.5q54 138 106 213q-52 -52 -162.5 -181.5t-177.5 -188.5
q-42 -36 -57 -29q-20 6 -14 53q16 133 133 316q33 54 80 90q23 19 45 22q15 2 6 -15q-2 -3 -6 -8q-2 -2 -2 -3q-89 -102 -146 -205q-63 -112 -86 -189q-4 -12 -6 -25.5t4 -19.5q17 2 54 33q63 58 141 150q62 71 174 209q3 3 12 15t13.5 17.5t13 13.5t16.5 13q6 5 15 2
t12 -10q2 -14 -6 -35q-13 -25 -40 -73t-47 -87t-36 -76q-34 -82 -43 -122q-12 -46 6 -46q44 9 129 117q15 18 82 105q118 147 162 194q16 18 50 43.5t48 28.5z" />
    <glyph glyph-name="x" unicode="x" horiz-adv-x="423" 
d="M506 342q18 18 18 14q-12 -23 -43 -59q-160 -192 -272 -274q-18 -12 -30.5 -18t-29 -5t-30.5 16q-10 11 -17 24t-11.5 33t-6.5 28.5t-5 34.5t-3 28q-157 -124 -213 -162q-3 -2 -9.5 -5t-12 -4.5t-5.5 -0.5q0 2 3.5 5.5t8.5 6.5l5 4q37 29 110.5 89.5t110.5 88.5
q-5 90 6 220q3 43 22 67q6 7 13.5 10t13.5 -4q4 -6 4 -22q-1 -20 -7.5 -105t-6.5 -129q53 43 159.5 128t159.5 128q25 19 35 19q0 -3 -22 -25q-65 -53 -186 -154t-146 -122q0 -9 0.5 -35.5t1.5 -43t3 -38t7.5 -34.5t13.5 -19q5 -4 12.5 -4.5t16.5 3.5t18 8.5t21 13.5
t20.5 15t20.5 16.5t17 15.5l15 15l11 9q86 83 174 184q24 28 35 39z" />
    <glyph glyph-name="y" unicode="y" horiz-adv-x="536" 
d="M643 352q3 2 4 1q1 -4 -8 -13q-49 -46 -162 -139q-178 -146 -221 -181q-63 -118 -88.5 -164t-78.5 -135.5t-99 -156.5q-82 -123 -170 -205q-64 -60 -107 -64q-32 -3 -41 22.5t-2 57.5q20 90 129 226q66 84 185 194q73 73 186 168q65 125 147 266q-43 -48 -116 -110
q-86 -73 -168 -109q-37 -14 -53 -12q-26 3 -33.5 27t-1.5 51q38 159 194 340q33 33 64 43q25 6 28 0q6 -7 -10 -23q-168 -168 -235 -342q-17 -38 -17 -59q2 -24 39 -15q47 11 115 60q101 66 196 172q43 48 46 53q8 11 33 47t40 54q18 20 41 40q22 17 33 23q18 7 10 -8
q-5 -11 -13.5 -23t-19.5 -27t-16 -22q-87 -128 -201 -340q21 18 59.5 49.5l49.5 40.5q36 29 113 94.5t120 98.5q13 10 29 20zM90 -186q8 16 30.5 56.5t33.5 63.5q-167 -146 -271 -262q-110 -128 -155 -215q-1 -3 -6.5 -13t-7 -14t-6.5 -15.5t-6.5 -16t-5.5 -16t-4 -16
t-2 -15.5t1 -15q3 -15 15 -16t29.5 10.5t27 18.5t20.5 16q76 66 166 207q51 78 141 242z" />
    <glyph glyph-name="z" unicode="z" horiz-adv-x="559" 
d="M655 356q5 -4 -54 -70.5t-71 -76.5q-109 -117 -188 -166q-52 -36 -111 -45q-50 -7 -116 25q-14 6 -58 30q-6 -3 -18.5 -10t-18.5 -10q-56 -29 -90 -29q-22 0 -36 9t-9 30q7 25 32.5 45.5t53.5 26.5q16 4 31.5 0t40 -16t31.5 -15q64 42 188 158q27 25 73.5 71t61.5 60
q9 8 54 53q-32 -9 -125 -23q-17 -2 -64.5 -7t-79 -11.5t-57.5 -17.5q-20 -11 -24 -29.5t12 -36.5q19 -19 45 -25q4 -1 12 -1.5t13 -1t5 -1.5q0 -4 -24 -6q-68 0 -88 49q-12 32 9.5 58.5t55.5 36.5q57 21 170 31t162 24q6 2 23 9t24 7q22 0 12 -21q-7 -12 -20 -20
q-11 -10 -28.5 -24t-29.5 -23.5t-14 -11.5q-21 -19 -62 -58t-74 -69.5t-64 -56.5q-86 -79 -150 -121q48 -26 92 -37q66 -15 129 12q36 16 75.5 45t64.5 52t63 61q4 4 40 42.5t68 72t33 32.5zM-57 20q45 8 100 43q-6 3 -18.5 10.5t-18.5 10.5q-39 21 -82 -16q-6 -5 -12.5 -13
t-9.5 -17.5t6 -14.5q17 -7 35 -3z" />
    <glyph glyph-name="braceleft" unicode="{" horiz-adv-x="782" 
d="M897 1219q12 0 12 -5q-3 -12 -12 -18q-75 -52 -94 -70q-16 -14 -32.5 -31.5t-28 -31t-29 -37t-24.5 -33t-27 -38t-25 -35.5q-89 -139 -170 -211q-85 -78 -186 -105q39 -34 50 -86.5t9 -124.5q-2 -50 -14 -141t-15 -125q-8 -66 4 -107l1 -5q2 -5 2.5 -8t-1.5 -5
q-3 -1 -7.5 3.5t-4.5 6.5q-12 17 -16 47q-4 40 4 119q24 176 22 264q-4 84 -34 123q-20 25 -78 49q70 18 90 25q106 38 190 135q43 49 95 127.5t102.5 148.5t105.5 117q53 49 111 52z" />
    <glyph glyph-name="bar" unicode="|" horiz-adv-x="858" 
d="M426 1343q15 -25 29 -100q52 -513 -6 -1089q-10 -119 -33 -220q-2 -8 -6 -28q0 -8 -6 -14q-4 0 -5 6q-3 47 7 104q18 214 28 508q11 478 -24 790q-8 33 -4 48q4 9 8.5 6.5t11.5 -11.5z" />
    <glyph glyph-name="braceright" unicode="}" horiz-adv-x="952" 
d="M684 707q32 -34 125 -56q-102 -32 -147 -63q-79 -53 -164 -152q-62 -73 -136 -174q-9 -11 -57.5 -74.5t-77.5 -93.5q-60 -60 -80 -57q-2 1 12 16t30.5 32t17.5 19q45 50 160 203q98 136 168 209q81 87 167 133q-28 10 -57 47q-35 49 -31 144q3 45 22.5 147.5t18.5 159.5
q-4 65 -24 102q-6 6 -6 15q1 5 7.5 4.5t12.5 -4.5q42 -24 51 -103q2 -40 -3.5 -83t-17.5 -99.5t-16 -83.5q-23 -136 25 -188z" />
    <glyph glyph-name="asciitilde" unicode="~" horiz-adv-x="761" 
d="M680 520q3 -1 -5.5 -11t-15.5 -17q-61 -61 -133 -43q-10 2 -30 8.5t-36 10t-32 3.5q-28 0 -86 -35q-9 -7 -20 -9.5t-19 7.5q-1 3 2.5 7t9 8.5t11 8.5t11.5 8t7 5q58 39 125 21q11 -3 30.5 -9.5t30.5 -10t31 -6t33 2.5q24 5 53 27q2 1 11 8.5t15 12t7 3.5z" />
    <glyph glyph-name="exclamdown" unicode="&#xa1;" horiz-adv-x="641" 
d="M63 25q-15 -11 -25 -7q-7 2 -3 13q9 17 21.5 34.5t29.5 40t25 33.5q122 176 284 453q19 36 118.5 206t104.5 167q1 -2 0.5 -4t-1.5 -5t-1 -4q-13 -35 -86 -178q-70 -133 -122 -227q-168 -296 -295 -473q-21 -32 -50 -49zM694 1128q-12 0 -15 11t5 26q8 14 21.5 24.5
t25.5 10.5t15 -11t-5 -26q-7 -15 -21 -25t-26 -10z" />
    <glyph glyph-name="cent" unicode="&#xa2;" horiz-adv-x="530" 
d="M485 362q4 4 3 1q-2 -10 -9 -17q-104 -129 -276 -223q-50 -22 -70 -25q-15 -43 -39 -98q-7 -14 -10 -14q-2 0 -2 12q4 21 14 47q3 8 9.5 25.5t9.5 25.5q-37 -4 -61.5 14t-32.5 47.5t-6.5 62t12.5 59.5q45 114 147 196q89 78 166 98q36 64 74 119q19 27 37 37q6 4 14.5 5
t13.5 -7q2 -8 -18 -35q-7 -10 -34 -48t-40 -60q61 0 78 -41q21 -51 -27 -115q-23 -31 -45 -43q-38 -19 -59 -10q-19 10 25 28q5 2 6 3q29 13 53 34q14 15 23.5 32.5t12.5 39t-10 37.5q-17 24 -67 20q-10 -17 -30 -49t-30 -49q-102 -175 -176 -350q61 13 123 53
q101 67 182 154q27 27 39 34zM68 135q20 -20 57 -16q30 79 68 160q61 141 135 276q-73 -31 -158 -133q-95 -115 -115 -195q-14 -67 13 -92z" />
    <glyph glyph-name="sterling" unicode="&#xa3;" horiz-adv-x="1183" 
d="M1374 1366q45 -49 -49 -233q-65 -124 -154 -213q-107 -111 -202 -101q-33 7 -54 23q-28 19 -28 39q2 18 35 -4q26 -16 53 -19q100 -9 219 123q91 101 143 219q31 72 31 123q0 29 -22 38.5t-52 2.5q-32 -7 -64.5 -20.5t-57.5 -26.5t-57 -38t-50 -39.5t-50.5 -47.5
t-45 -46.5t-47 -51t-43.5 -47.5q-152 -177 -295 -383q129 16 194 8q39 -6 43 -21q1 -2 -10 -1l-23 5q-74 12 -219 -12q-120 -173 -180 -270q-117 -174 -158 -228q103 0 258 -34q37 -8 120 -28.5t128 -29.5q125 -17 178 -8q7 1 25 5l14 3q6 -2 -8 -8q-12 -6 -28 -10
q-72 -20 -201 4q-51 9 -145.5 31t-135.5 30q-140 27 -219 25q-39 -46 -72 -74q-68 -57 -143 -78q-38 -9 -53 -2q-43 21 35 90q86 75 223 82q15 19 90 136q31 50 101 169t110 183q-118 -27 -367 -109q-36 -16 -59 -2q-21 13 14 27q222 71 426 106q198 313 422 518
q64 56 104 88t104 69.5t124 53.5q69 18 98 -16zM135 68q9 8 18 17t20 20.5t17 17.5q-81 -3 -147 -43q-76 -44 -88 -82q-6 -19 41 -7q1 1 2 1q75 23 137 76z" />
    <glyph glyph-name="currency" unicode="&#xa4;" horiz-adv-x="870" 
d="M760 727q15 8 21 5q2 -2 -1 -5q-6 -7 -39 -29q-7 -4 -48.5 -29t-63.5 -40q20 -62 -13 -137q-9 -18 -12 -20q-3 0 0 11q1 8 5 24.5t5 24.5q7 48 -4 84q-137 -94 -168 -118q16 -22 70 -129q7 10 26 31.5t29 37.5q12 15 27 27q10 8 13 2t-1 -16q-7 -19 -22 -43
q-14 -23 -58 -74q2 -7 12 -33.5t13 -40.5q9 -35 6 -39q-5 -8 -18 23q-1 2 -2 6q-2 3 -2 4q-7 19 -25 65q-40 -39 -95 -63.5t-114 -16t-88 63.5q-15 -12 -55 -57q-6 -6 -28.5 -20t-25.5 -9q-6 5 0 16.5t10 17t14.5 16l12.5 12.5q41 41 64 61q-19 131 106 260q-6 5 -32 31
q-8 11 -11 26q0 5 8 6t11 -1q27 -17 49 -39q53 48 118 72t121 -3q32 -16 48 -45l92 55q33 20 45 25zM420 481q-106 -82 -178 -151q6 -27 31 -43.5t53 -16.5q84 0 170 82q-31 69 -76 129zM428 518q86 62 174 117q-19 33 -53 41.5t-70 -4t-68 -32t-53 -40.5q43 -43 70 -82z
M334 578q-90 -97 -98 -209q34 30 49 41q42 35 118 92q-29 39 -69 76z" />
    <glyph glyph-name="yen" unicode="&#xa5;" horiz-adv-x="833" 
d="M336 465l55 86q-105 -11 -239 -49q-20 -6 -37 -6q-23 0 -25 4q-3 5 2.5 10t16.5 9t17 5.5t13 3.5q117 33 271 50q44 64 90 129q-77 -5 -201 -45q-25 -8 -41 4q-7 3 -8 10t6 12q117 40 264 47q2 2 15 20.5t20 26.5q-87 123 -147 281q-30 78 -44.5 140t-3.5 120q4 29 25 41
q11 7 21 2t4 -18q-19 -41 -15 -111q9 -81 37 -168q60 -173 133 -272q132 177 269 331q8 9 31.5 35t34 37.5t31 34t34.5 36.5l32.5 32.5t36 35t35.5 31.5q37 29 57 35q13 4 10 -6q-2 -9 -10 -17q-9 -9 -63 -63.5t-74 -75.5t-57.5 -62t-65.5 -75q-125 -142 -274 -340l31 -31
q2 -2 2 -4q100 -8 159 -26q24 -8 24 -11q1 -3 -5 -4q-9 -2 -51 6q-95 20 -199 17q-19 -26 -52 -72t-42 -59q186 12 372 0q27 -4 33 -7q4 -6 -10 -8h-23q-209 10 -389 -10q-183 -267 -303 -465q-27 -46 -57 -90l-3 -3t-3 -3.5t-3 -3t-3 -1.5t-2 1q5 14 22 53q89 185 246 420z
M606 733q-9 9 -24 21l-13 -19q19 0 37 -2z" />
    <glyph glyph-name="section" unicode="&#xa7;" horiz-adv-x="1044" 
d="M1012 1081q36 -42 22 -112q-12 -59 -46.5 -103.5t-88.5 -52.5q-23 -5 -33 6q-4 7 -1 11t9 6q63 14 97 53q46 56 51 110q2 33 -14 58.5t-47 32.5q-51 12 -127 -19q-106 -44 -203 -160q-28 -35 -38.5 -75.5t3.5 -80.5t55 -65q34 -21 54 -34.5t47.5 -35.5t47 -46.5
t31.5 -53.5q24 -64 15.5 -128t-41.5 -124q-60 -107 -178.5 -176.5t-249.5 -87.5q-156 -23 -213 49q-57 76 24 207q62 104 168 186q84 62 148 78q7 2 18.5 2.5t12.5 -2.5q0 -2 -33 -10q-128 -54 -238 -184q-109 -125 -102 -224q13 -71 112 -83q67 -5 146 24q120 42 206.5 140
t82.5 219q-2 71 -95 131q-9 6 -41 26t-46.5 30.5t-37.5 30t-35.5 40t-19.5 43.5q-17 66 35 153q66 105 176 176q130 79 250 82q80 0 117 -37zM553 840q46 134 225 231q-100 -38 -178 -110q-56 -56 -91 -108.5t-38 -109.5q0 -53 59 -104q21 -19 64.5 -48t75.5 -57t49 -63
q22 -45 10 -123q-14 -102 -89.5 -182.5t-180.5 -124.5q53 13 110 43q93 45 160.5 117t85.5 164q11 78 -10 131q-11 27 -33.5 52.5t-42 40t-53.5 37t-49 33.5q-109 82 -74 181z" />
    <glyph glyph-name="dieresis" unicode="&#xa8;" horiz-adv-x="438" 
d="M131 625q-7 -15 -21 -25t-26 -10t-15.5 11t3.5 26q8 14 21.5 24.5t25.5 10.5t15.5 -11t-3.5 -26zM307 625q-7 -15 -21 -25t-26 -10t-15.5 11t3.5 26q8 14 21.5 24.5t25.5 10.5t15.5 -11t-3.5 -26z" />
    <glyph glyph-name="copyright" unicode="&#xa9;" horiz-adv-x="911" 
d="M801 1196q37 -19 51 -58.5t9.5 -78.5t-19.5 -78q-48 -124 -160 -199q-35 -25 -74.5 -40.5t-84.5 -13t-74 31.5q-42 42 -35 114q3 42 20 76q9 18 10 19q0 -9 -4 -19q-14 -36 -14 -92q0 -74 51 -102q53 -24 123 2q111 44 188 164q16 25 28 53t20 59.5t4 63t-21 55.5
q-69 89 -248 -33q-3 -3 -18.5 -10t-15.5 -2q4 11 34 35q131 101 230 53zM680 1004q30 11 43 32q19 30 4 45q-17 13 -37 9t-37 -15q-44 -26 -91.5 -89t-43.5 -109q3 -26 30.5 -28t45.5 9q21 9 45 25.5t38 28.5t41.5 37t35.5 32q-47 -68 -131 -119q-57 -32 -86 -28
q-28 3 -38 27t-5 54q10 50 49 93.5t90 70.5q70 36 100 13t-2 -76q-6 -9 -20.5 -20t-26.5 -11q-16 0 -18 8q0 4 14 11z" />
    <glyph glyph-name="registered" unicode="&#xae;" horiz-adv-x="911" 
d="M485 862q-14 -18 -17 -13q-1 2 1 9q12 28 28 61t27.5 54t34 61l31.5 56q5 8 14 10t17 -2q4 -2 5 -5.5t0 -6t-4 -7.5t-4 -6q-6 -10 -26 -42t-29 -50q76 93 129 127q41 23 58 8q9 -6 11.5 -19.5t0 -25t-7.5 -22.5q-21 -44 -81.5 -64t-94.5 -14q52 -58 84 -105
q1 -1 6.5 -8.5t10 -14t3.5 -7.5q-2 -3 -13 8t-24 26.5t-14 16.5q-35 45 -70 82q-15 -19 -38 -53.5t-38 -53.5zM621 1176q108 59 180 20q36 -19 49.5 -58.5t9 -78.5t-19.5 -78q-46 -119 -160 -199q-36 -25 -74 -40t-83.5 -13t-76.5 31q-40 40 -32 117q2 22 11 51.5t19 40.5
q-6 -13 -13 -48t-7 -63q0 -73 53 -102q51 -25 121 2q111 44 188 164q16 25 28.5 53t20.5 59.5t4.5 63t-20.5 55.5q-21 28 -57 34t-69 -3.5t-64 -26.5q-10 -5 -60 -37q-7 -7 -26 -13q-7 -2 -6 1q1 10 32 33.5t52 34.5zM696 1100q-15 -8 -55 -43q-53 -49 -72 -80q32 -4 69 8.5
t62 36.5q34 34 39 72q1 9 -3 13t-12 3t-15 -3.5t-13 -6.5z" />
    <glyph glyph-name="acute" unicode="&#xb4;" horiz-adv-x="487" 
d="M399 682q4 -3 1 -9t-5.5 -9t-8.5 -7.5t-7 -5.5q-99 -75 -240 -98q-29 -4 -35 2q65 12 132 41q65 29 133 82q6 6 15 8t15 -4z" />
    <glyph glyph-name="mu" unicode="&#xb5;" horiz-adv-x="518" 
d="M598 340q5 5 4 0l-4 -8q-2 -2 -4.5 -7t-5.5 -10q-71 -92 -211 -225q-16 -16 -40 -36t-59.5 -37.5t-50.5 -2.5q-36 36 74 228q-66 -76 -127 -129q-98 -90 -174 -111q-21 -6 -39 3t-22 30q-2 8 -2 22q-157 -294 -373 -684q-1 -2 -2 -5t-2 -5q-2 -2 -6 -10l-9 -15
q-18 -38 -45 -65q-4 -7 -14 -12q-6 -3 -6 1v3q0 8 8 24q38 78 82 152q0 1 1 3t1 3q149 285 340 633q24 43 82 150.5t92 164.5q11 18 35 47q23 23 35 19q5 -2 6 -7t-1 -13t-5.5 -16.5t-8.5 -18t-9 -17t-8 -14t-5 -8.5q-15 -30 -50 -91t-59 -109t-41 -95q-7 -28 0 -39
q8 -15 62 12q82 40 190 148q102 105 181 227q22 36 47 49q16 10 24 2q3 -3 3.5 -6.5t-0.5 -6.5t-3 -7t-2 -5q-2 -3 -74 -104q-96 -145 -137 -227q-23 -46 -23 -74q2 -13 11 -12q85 19 287 243q40 51 57 68zM-438 -631l2 4q0 -2 -2 -4zM-440 -635l2 4q0 -2 -2 -4z" />
    <glyph glyph-name="paragraph" unicode="&#xb6;" horiz-adv-x="1243" 
d="M1667 1120q29 -4 93.5 -21.5t64.5 -25.5q0 -1 -17 3t-38.5 8.5t-28.5 5.5q-198 28 -340 28q-81 0 -160 -6q-88 -116 -246 -360q-194 -317 -272 -451q-210 -370 -215 -379q-14 -20 -13 -11q0 2 1 7q4 18 8 25q14 35 33.5 75.5t34 68t39 74t36.5 68.5q116 217 275 471
q156 253 274 410q-49 -5 -131 -16q-27 -45 -83.5 -127t-84.5 -127q-128 -207 -272 -459q-85 -144 -131 -231q-21 -39 -39 -64q-5 -7 -6 -2q0 4 2 10q10 35 43 103q61 131 194 368q-33 -26 -91.5 -42.5t-111.5 -16.5q-42 0 -81 13t-67 44.5t-26 75.5q2 84 107 184
q179 173 467 252q161 46 329 58q7 8 23.5 28.5t29 34t27.5 25.5q18 14 35 20q14 4 10 -6q-2 -6 -8 -14q-31 -33 -71 -84q102 4 153 4q128 -3 254 -21z" />
    <glyph glyph-name="cedilla" unicode="&#xb8;" horiz-adv-x="495" 
d="M281 152q4 -41 -48 -107q-69 -95 -180 -184q-36 -29 -45 -29q-5 1 5.5 12.5t17.5 16.5q34 26 90 86q76 79 117 166q0 2 2.5 9.5t3.5 12.5t0 10.5t-4 8.5q-10 3 -18.5 12.5t-8.5 19.5q0 6 5 8.5t12.5 1t13.5 -3.5t10 -4q24 -10 27 -36z" />
    <glyph glyph-name="questiondown" unicode="&#xbf;" horiz-adv-x="1048" 
d="M313 14q-42 18 -53 60.5t-2 82t29 79.5q47 96 159 208q61 63 193 185q109 102 182 180q35 35 101 109q20 20 22 20q1 0 -1.5 -4.5t-6 -9.5t-4.5 -6q-4 -5 -29.5 -38.5t-40.5 -50.5q-52 -60 -119 -127q-33 -34 -125 -123.5t-139 -140.5q-110 -118 -155 -207
q-15 -26 -24.5 -53t-14 -58.5t9.5 -56t47 -34.5q53 -15 131 8q64 19 115 55q132 90 147 195q9 60 -14 80q-6 4 -18.5 10t-18.5 10q-7 5 -5 10.5t11 8.5q28 7 51.5 -13t28.5 -49q5 -48 -35 -117q-60 -103 -178 -170q-61 -33 -121 -47q-76 -15 -123 4zM1034 1102q-12 0 -15 11
t5 26q7 15 21 25t26 10t15 -11t-5 -26q-6 -13 -20.5 -24t-26.5 -11z" />
    <glyph glyph-name="Agrave" unicode="&#xc0;" 
d="M1270 606q67 -17 65 -24q-1 -2 -18 1.5t-38 8.5t-26 6q-90 18 -215 18q-6 -15 -74.5 -170.5t-103.5 -236.5q-34 -83 -47 -121q-22 -65 -14 -96q4 -16 19.5 -19t37.5 5.5t44.5 20t46.5 27.5t38 26.5t23 17.5q88 66 190 168q13 14 38.5 41t39.5 40q3 3 12.5 10.5t9.5 6.5
q-1 -4 -5 -9.5t-9 -11.5t-6 -8q-50 -62 -141 -149q-108 -105 -199 -164q-71 -43 -109 -47q-29 -3 -45 15t-18 48q-2 36 25 123q39 108 194 483q-61 -1 -276 -20q-80 -97 -152 -174q-223 -245 -393 -381q-121 -97 -209 -123q-36 -8 -55 -6q-9 0 -25 5t-8 13q5 4 37 11
q127 25 272 139q72 55 203 180q153 156 303 332q-82 -12 -203 -37q-197 -42 -293 -119q-3 -3 -14 -13t-18 -15q-9 -5 -11.5 5t0.5 17q10 23 29 39q60 53 182 88q149 45 353 66l43 49q95 114 335 418q16 20 47 60t57 73t50 59q37 32 49 4q8 -20 -2 -65q-6 -26 -13.5 -51.5
t-19 -56t-18 -47t-23 -55t-20.5 -48.5q-123 -278 -148 -330q148 -8 226 -27zM733 625q123 10 260 10q85 197 174 393l56 129q30 76 32 98q-1 1 -16 -15.5t-37 -42t-43 -50t-39 -46.5t-20 -24q-30 -38 -92.5 -114.5t-92.5 -114.5q-54 -68 -182 -223zM1427 1350q2 -1 10 -3
t13.5 -3.5t5.5 -2.5q0 -4 -25.5 0.5t-35.5 8.5q-36 10 -88.5 42.5t-75.5 71.5q-8 14 1 26q9 11 17 -5q60 -94 178 -135z" />
    <glyph glyph-name="Aacute" unicode="&#xc1;" 
d="M1270 606q67 -17 65 -24q-1 -2 -18 1.5t-38 8.5t-26 6q-90 18 -215 18q-6 -15 -74.5 -170.5t-103.5 -236.5q-34 -83 -47 -121q-22 -65 -14 -96q4 -16 19.5 -19t37.5 5.5t44.5 20t46.5 27.5t38 26.5t23 17.5q88 66 190 168q13 14 38.5 41t39.5 40q3 3 12.5 10.5t9.5 6.5
q-1 -4 -5 -9.5t-9 -11.5t-6 -8q-50 -62 -141 -149q-108 -105 -199 -164q-71 -43 -109 -47q-29 -3 -45 15t-18 48q-2 36 25 123q39 108 194 483q-61 -1 -276 -20q-80 -97 -152 -174q-223 -245 -393 -381q-121 -97 -209 -123q-36 -8 -55 -6q-9 0 -25 5t-8 13q5 4 37 11
q127 25 272 139q72 55 203 180q153 156 303 332q-82 -12 -203 -37q-197 -42 -293 -119q-3 -3 -14 -13t-18 -15q-9 -5 -11.5 5t0.5 17q10 23 29 39q60 53 182 88q149 45 353 66l43 49q95 114 335 418q16 20 47 60t57 73t50 59q37 32 49 4q8 -20 -2 -65q-6 -26 -13.5 -51.5
t-19 -56t-18 -47t-23 -55t-20.5 -48.5q-123 -278 -148 -330q148 -8 226 -27zM733 625q123 10 260 10q85 197 174 393l56 129q30 76 32 98q-1 1 -16 -15.5t-37 -42t-43 -50t-39 -46.5t-20 -24q-30 -38 -92.5 -114.5t-92.5 -114.5q-54 -68 -182 -223zM1464 1479q4 -3 1 -9
t-5.5 -9t-8.5 -7.5t-7 -5.5q-99 -75 -240 -98q-29 -4 -35 2q63 11 131 41t134 82q6 6 15 8t15 -4z" />
    <glyph glyph-name="Acircumflex" unicode="&#xc2;" 
d="M1270 606q67 -17 65 -24q-1 -2 -18 1.5t-38 8.5t-26 6q-90 18 -215 18q-6 -15 -74.5 -170.5t-103.5 -236.5q-34 -83 -47 -121q-22 -65 -14 -96q4 -16 19.5 -19t37.5 5.5t44.5 20t46.5 27.5t38 26.5t23 17.5q88 66 190 168q13 14 38.5 41t39.5 40q3 3 12.5 10.5t9.5 6.5
q-1 -4 -5 -9.5t-9 -11.5t-6 -8q-50 -62 -141 -149q-108 -105 -199 -164q-71 -43 -109 -47q-29 -3 -45 15t-18 48q-2 36 25 123q39 108 194 483q-61 -1 -276 -20q-80 -97 -152 -174q-223 -245 -393 -381q-121 -97 -209 -123q-36 -8 -55 -6q-9 0 -25 5t-8 13q5 4 37 11
q127 25 272 139q72 55 203 180q153 156 303 332q-82 -12 -203 -37q-197 -42 -293 -119q-3 -3 -14 -13t-18 -15q-9 -5 -11.5 5t0.5 17q10 23 29 39q60 53 182 88q149 45 353 66l43 49q95 114 335 418q16 20 47 60t57 73t50 59q37 32 49 4q8 -20 -2 -65q-6 -26 -13.5 -51.5
t-19 -56t-18 -47t-23 -55t-20.5 -48.5q-123 -278 -148 -330q148 -8 226 -27zM733 625q123 10 260 10q85 197 174 393l56 129q30 76 32 98q-1 1 -16 -15.5t-37 -42t-43 -50t-39 -46.5t-20 -24q-30 -38 -92.5 -114.5t-92.5 -114.5q-54 -68 -182 -223zM1477 1352q1 -1 5.5 -4
t8.5 -5.5t4 -3.5q0 -5 -8 -2q-23 10 -36 23t-28 37q-36 56 -53 96q-84 -44 -92 -47q-5 -2 -35.5 -15.5t-50.5 -21.5t-50.5 -16t-35.5 0q38 11 121 51q24 13 141 80q6 4 17 3.5t14 -7.5q2 -7 -4 -13q4 -9 11 -28.5t11 -28.5q32 -76 60 -98z" />
    <glyph glyph-name="Atilde" unicode="&#xc3;" 
d="M1270 606q67 -17 65 -24q-1 -2 -18 1.5t-38 8.5t-26 6q-90 18 -215 18q-6 -15 -74.5 -170.5t-103.5 -236.5q-34 -83 -47 -121q-22 -65 -14 -96q4 -16 19.5 -19t37.5 5.5t44.5 20t46.5 27.5t38 26.5t23 17.5q88 66 190 168q13 14 38.5 41t39.5 40q3 3 12.5 10.5t9.5 6.5
q-1 -4 -5 -9.5t-9 -11.5t-6 -8q-50 -62 -141 -149q-108 -105 -199 -164q-71 -43 -109 -47q-29 -3 -45 15t-18 48q-2 36 25 123q39 108 194 483q-61 -1 -276 -20q-80 -97 -152 -174q-223 -245 -393 -381q-121 -97 -209 -123q-36 -8 -55 -6q-9 0 -25 5t-8 13q5 4 37 11
q127 25 272 139q72 55 203 180q153 156 303 332q-82 -12 -203 -37q-197 -42 -293 -119q-3 -3 -14 -13t-18 -15q-9 -5 -11.5 5t0.5 17q10 23 29 39q60 53 182 88q149 45 353 66l43 49q95 114 335 418q16 20 47 60t57 73t50 59q37 32 49 4q8 -20 -2 -65q-6 -26 -13.5 -51.5
t-19 -56t-18 -47t-23 -55t-20.5 -48.5q-123 -278 -148 -330q148 -8 226 -27zM733 625q123 10 260 10q85 197 174 393l56 129q30 76 32 98q-1 1 -16 -15.5t-37 -42t-43 -50t-39 -46.5t-20 -24q-30 -38 -92.5 -114.5t-92.5 -114.5q-54 -68 -182 -223zM1513 1473q3 -1 -6 -12
t-14 -17q-61 -61 -133 -43q-10 2 -30 8.5t-36 10t-32 3.5q-29 0 -86 -34q-5 -4 -12.5 -7.5t-15.5 -3t-11 7.5q-1 3 2.5 7t9 8.5t11 8.5t11.5 8t7 5q58 39 125 21q11 -3 30 -9.5t30.5 -10t31 -6t32.5 2.5q26 6 54 27q3 2 11 9t14 12t7 4z" />
    <glyph glyph-name="Adieresis" unicode="&#xc4;" 
d="M1270 606q67 -17 65 -24q-1 -2 -18 1.5t-38 8.5t-26 6q-90 18 -215 18q-6 -15 -74.5 -170.5t-103.5 -236.5q-34 -83 -47 -121q-22 -65 -14 -96q4 -16 19.5 -19t37.5 5.5t44.5 20t46.5 27.5t38 26.5t23 17.5q88 66 190 168q13 14 38.5 41t39.5 40q3 3 12.5 10.5t9.5 6.5
q-1 -4 -5 -9.5t-9 -11.5t-6 -8q-50 -62 -141 -149q-108 -105 -199 -164q-71 -43 -109 -47q-29 -3 -45 15t-18 48q-2 36 25 123q39 108 194 483q-61 -1 -276 -20q-80 -97 -152 -174q-223 -245 -393 -381q-121 -97 -209 -123q-36 -8 -55 -6q-9 0 -25 5t-8 13q5 4 37 11
q127 25 272 139q72 55 203 180q153 156 303 332q-82 -12 -203 -37q-197 -42 -293 -119q-3 -3 -14 -13t-18 -15q-9 -5 -11.5 5t0.5 17q10 23 29 39q60 53 182 88q149 45 353 66l43 49q95 114 335 418q16 20 47 60t57 73t50 59q37 32 49 4q8 -20 -2 -65q-6 -26 -13.5 -51.5
t-19 -56t-18 -47t-23 -55t-20.5 -48.5q-123 -278 -148 -330q148 -8 226 -27zM733 625q123 10 260 10q85 197 174 393l56 129q30 76 32 98q-1 1 -16 -15.5t-37 -42t-43 -50t-39 -46.5t-20 -24q-30 -38 -92.5 -114.5t-92.5 -114.5q-54 -68 -182 -223zM1260 1415
q-7 -15 -21.5 -25t-26.5 -10t-15.5 11t3.5 26q8 14 21.5 24.5t25.5 10.5t16 -11t-3 -26zM1436 1415q-7 -15 -21 -25t-26 -10t-16 11t3 26q8 14 21.5 24.5t25.5 10.5t16 -11t-3 -26z" />
    <glyph glyph-name="Aring" unicode="&#xc5;" 
d="M1270 606q67 -17 65 -24q-1 -2 -18 1.5t-38 8.5t-26 6q-90 18 -215 18q-6 -15 -74.5 -170.5t-103.5 -236.5q-34 -83 -47 -121q-22 -65 -14 -96q4 -16 19.5 -19t37.5 5.5t44.5 20t46.5 27.5t38 26.5t23 17.5q88 66 190 168q13 14 38.5 41t39.5 40q3 3 12.5 10.5t9.5 6.5
q-1 -4 -5 -9.5t-9 -11.5t-6 -8q-50 -62 -141 -149q-108 -105 -199 -164q-71 -43 -109 -47q-29 -3 -45 15t-18 48q-2 36 25 123q39 108 194 483q-61 -1 -276 -20q-80 -97 -152 -174q-223 -245 -393 -381q-121 -97 -209 -123q-36 -8 -55 -6q-9 0 -25 5t-8 13q5 4 37 11
q127 25 272 139q72 55 203 180q153 156 303 332q-82 -12 -203 -37q-197 -42 -293 -119q-3 -3 -14 -13t-18 -15q-9 -5 -11.5 5t0.5 17q10 23 29 39q60 53 182 88q149 45 353 66l43 49q95 114 335 418q16 20 47 60t57 73t50 59q37 32 49 4q8 -20 -2 -65q-6 -26 -13.5 -51.5
t-19 -56t-18 -47t-23 -55t-20.5 -48.5q-123 -278 -148 -330q148 -8 226 -27zM733 625q123 10 260 10q85 197 174 393l56 129q30 76 32 98q-1 1 -16 -15.5t-37 -42t-43 -50t-39 -46.5t-20 -24q-30 -38 -92.5 -114.5t-92.5 -114.5q-54 -68 -182 -223zM1339 1528q31 9 54.5 -7
t19.5 -48q0 -13 -8 -29t-8 -4q0 5 1.5 16.5t1 19.5t-4.5 15q-7 19 -26 18.5t-35 -10t-27 -20.5q-13 -11 -25 -29t-17.5 -39t7.5 -35q13 -19 47 -2q34 15 51 45q9 11 23 15q9 3 10.5 -4t-2.5 -13q-12 -24 -45 -53q-50 -36 -88 -18q-27 12 -29.5 44t10.5 56q14 28 38 50.5
t52 31.5z" />
    <glyph glyph-name="AE" unicode="&#xc6;" horiz-adv-x="1646" 
d="M1909 1300q37 -32 37 -88q1 -66 -43 -125.5t-107 -78.5q-38 -8 -55 -2q-14 8 -8.5 12.5t20.5 9.5q66 19 109 62q27 27 44.5 63t15.5 76.5t-36 64.5q-33 24 -78 28t-84.5 -6.5t-78.5 -29.5q-107 -52 -183 -170q-65 -105 -65 -207q0 -67 39 -118q76 11 131 8q73 -4 102 -29
q13 -9 15.5 -23t-7.5 -26q-30 -30 -98 -21q-97 10 -158 68q-117 -26 -227 -100q-34 -23 -55 -41q68 -6 131 -21q67 -17 65 -24q-1 -2 -18 1.5t-38 8.5t-26 6q-72 13 -129 16q-141 -123 -211 -295q-58 -138 -30 -256q15 -60 62.5 -98t107.5 -37q102 -2 235 64q100 50 205 135
q112 87 215 190l21 15q0 -8 -21 -29q-94 -105 -205 -190q-98 -76 -198 -129q-51 -27 -101.5 -45t-109.5 -28t-113.5 6t-93.5 60q-30 30 -47 82q-19 -223 100 -321q16 -11 18 -14q-1 -1 -4 -0.5t-7 2t-5 2.5q-24 12 -41 32q-32 35 -59 105q-13 43 -20.5 85.5t-6 88.5
t3.5 81.5t15.5 86.5t20.5 79.5t29 85t31 79t35.5 85t34.5 80.5q-61 -1 -276 -20q-80 -97 -152 -174q-223 -245 -393 -381q-121 -97 -209 -123q-36 -8 -55 -6q-9 0 -25 5t-8 13q5 4 37 11q127 25 272 139q72 55 203 180q153 156 303 332q-82 -12 -203 -37q-197 -42 -293 -119
q-3 -3 -14 -13t-18 -15q-9 -5 -11.5 5t0.5 17q10 23 29 39q60 53 182 88q149 45 353 66l43 49q95 114 335 418q16 20 47 60t57 73t50 59q37 32 49 4q8 -20 -2 -65q-6 -26 -13.5 -51.5t-19 -56t-18 -47t-23 -55t-20.5 -48.5q-123 -278 -148 -330q14 -2 43 -2q61 50 140 90
q78 40 180 63q-23 29 -37 62q-30 77 -9.5 155.5t68.5 143.5t113 110q123 84 248 84q77 0 119 -39zM733 625q123 10 260 10q85 197 174 393l56 129q30 76 32 98q-1 1 -16 -15.5t-37 -42t-43 -50t-39 -46.5t-20 -24q-30 -38 -92.5 -114.5t-92.5 -114.5q-54 -68 -182 -223z
M1571 784q-72 0 -121 -10q50 -50 133 -57q43 -4 64 2q37 16 18 37q-9 11 -28.5 17.5t-29.5 7.5t-36 3zM1038 616l-24 -55q16 19 57 55h-33z" />
    <glyph glyph-name="Ccedilla" unicode="&#xc7;" horiz-adv-x="765" 
d="M145 -80q4 -41 -47 -106q-71 -97 -180 -185q-35 -28 -45 -28q-5 1 5.5 12t17.5 16q34 26 90 86q74 77 116 166q0 2 2.5 9.5t3.5 12.5t0 10.5t-4 8.5q-9 3 -17.5 12.5t-8.5 18.5q-44 28 -71 79.5t-34 112t-4.5 117t13.5 111.5q44 209 194 432q147 215 359 366
q89 65 190 111q136 61 254 61q78 0 121 -38q58 -52 55 -125q-2 -76 -72 -172q-75 -102 -192 -177q-95 -59 -174 -69q-73 -8 -105 24q-16 16 -8 21q7 5 21 -2q14 -5 34 -8q99 -12 240 73q119 74 186 177q84 126 27 210q-44 65 -143 62q-106 -2 -246 -78q-221 -116 -414 -346
q-166 -197 -250 -406q-56 -147 -59 -268q-4 -160 76 -235q62 -54 168 -43q110 12 243 90q102 59 207 151q41 36 86 84q2 2 16.5 18.5t27.5 31t14 14.5q4 -3 -18 -33t-29 -37q-46 -49 -70 -72q-65 -62 -166 -135q-97 -65 -195 -104q-124 -48 -217 -25q2 -4 2 -6z" />
    <glyph glyph-name="Egrave" unicode="&#xc8;" horiz-adv-x="858" 
d="M1116 1300q37 -32 37 -88q1 -66 -42.5 -125.5t-106.5 -78.5q-39 -9 -56 -2q-14 8 -8.5 12.5t21.5 9.5q65 19 108 62q27 27 45 63t16 76.5t-36 64.5q-33 24 -78.5 28t-85 -6.5t-78.5 -29.5q-106 -52 -182 -170q-66 -107 -66 -207q0 -67 39 -118q76 11 131 8q74 -4 103 -29
q13 -9 15.5 -23t-7.5 -26q-30 -30 -99 -21q-96 10 -157 68q-119 -27 -228 -100q-91 -60 -163.5 -152t-116.5 -197q-59 -139 -31 -256q15 -60 62.5 -98t107.5 -37q103 -2 236 64q97 49 204 135q112 87 215 190l21 15q0 -8 -21 -29q-96 -107 -204 -190q-96 -74 -199 -129
q-51 -27 -101.5 -45t-109.5 -28t-113.5 6t-93.5 60q-40 44 -53 113.5t0 128.5q19 114 98 236q112 175 295 266q78 40 180 63q-21 26 -36 62q-30 77 -9.5 155.5t68.5 143.5t113 110q123 84 247 84q77 0 119 -39zM778 784q-72 0 -121 -10q50 -50 134 -57q42 -4 63 2
q37 16 18 37q-9 11 -28.5 17.5t-29.5 7.5t-36 3zM1182 1378q2 -1 9.5 -2.5t13 -3t5.5 -2.5q0 -4 -26 0t-35 8q-36 10 -88.5 43t-75.5 72q-8 13 1 25t18 -5q60 -94 178 -135z" />
    <glyph glyph-name="Eacute" unicode="&#xc9;" horiz-adv-x="858" 
d="M1116 1300q37 -32 37 -88q1 -66 -42.5 -125.5t-106.5 -78.5q-39 -9 -56 -2q-14 8 -8.5 12.5t21.5 9.5q65 19 108 62q27 27 45 63t16 76.5t-36 64.5q-33 24 -78.5 28t-85 -6.5t-78.5 -29.5q-106 -52 -182 -170q-66 -107 -66 -207q0 -67 39 -118q76 11 131 8q74 -4 103 -29
q13 -9 15.5 -23t-7.5 -26q-30 -30 -99 -21q-96 10 -157 68q-119 -27 -228 -100q-91 -60 -163.5 -152t-116.5 -197q-59 -139 -31 -256q15 -60 62.5 -98t107.5 -37q103 -2 236 64q97 49 204 135q112 87 215 190l21 15q0 -8 -21 -29q-96 -107 -204 -190q-96 -74 -199 -129
q-51 -27 -101.5 -45t-109.5 -28t-113.5 6t-93.5 60q-40 44 -53 113.5t0 128.5q19 114 98 236q112 175 295 266q78 40 180 63q-21 26 -36 62q-30 77 -9.5 155.5t68.5 143.5t113 110q123 84 247 84q77 0 119 -39zM778 784q-72 0 -121 -10q50 -50 134 -57q42 -4 63 2
q37 16 18 37q-9 11 -28.5 17.5t-29.5 7.5t-36 3zM1272 1540q4 -3 1 -9t-6 -9t-9 -7.5t-7 -5.5q-99 -75 -239 -98q-29 -4 -35 2q63 11 131 41q65 29 133 82q6 6 15.5 8t15.5 -4z" />
    <glyph glyph-name="Ecircumflex" unicode="&#xca;" horiz-adv-x="858" 
d="M1116 1300q37 -32 37 -88q1 -66 -42.5 -125.5t-106.5 -78.5q-39 -9 -56 -2q-14 8 -8.5 12.5t21.5 9.5q65 19 108 62q27 27 45 63t16 76.5t-36 64.5q-33 24 -78.5 28t-85 -6.5t-78.5 -29.5q-106 -52 -182 -170q-66 -107 -66 -207q0 -67 39 -118q76 11 131 8q74 -4 103 -29
q13 -9 15.5 -23t-7.5 -26q-30 -30 -99 -21q-96 10 -157 68q-119 -27 -228 -100q-91 -60 -163.5 -152t-116.5 -197q-59 -139 -31 -256q15 -60 62.5 -98t107.5 -37q103 -2 236 64q97 49 204 135q112 87 215 190l21 15q0 -8 -21 -29q-96 -107 -204 -190q-96 -74 -199 -129
q-51 -27 -101.5 -45t-109.5 -28t-113.5 6t-93.5 60q-40 44 -53 113.5t0 128.5q19 114 98 236q112 175 295 266q78 40 180 63q-21 26 -36 62q-30 77 -9.5 155.5t68.5 143.5t113 110q123 84 247 84q77 0 119 -39zM778 784q-72 0 -121 -10q50 -50 134 -57q42 -4 63 2
q37 16 18 37q-9 11 -28.5 17.5t-29.5 7.5t-36 3zM1235 1366q1 -1 5.5 -3.5t8.5 -5t4 -3.5q0 -5 -8 -2q-23 10 -35.5 22.5t-27.5 36.5q-39 60 -54 96q-85 -44 -92 -47q-5 -2 -35.5 -15.5t-50.5 -21.5t-50.5 -16t-35.5 0q38 11 121 51q23 13 141 80q6 4 17 3.5t14 -7.5
q2 -6 -4 -12q4 -9 11.5 -29t11.5 -29q1 -2 4.5 -10t4.5 -11t4.5 -10.5t5 -11t5 -10t6 -10.5t6.5 -9.5t7 -9.5t7.5 -8.5t8.5 -7.5z" />
    <glyph glyph-name="Edieresis" unicode="&#xcb;" horiz-adv-x="858" 
d="M1116 1300q37 -32 37 -88q1 -66 -42.5 -125.5t-106.5 -78.5q-39 -9 -56 -2q-14 8 -8.5 12.5t21.5 9.5q65 19 108 62q27 27 45 63t16 76.5t-36 64.5q-33 24 -78.5 28t-85 -6.5t-78.5 -29.5q-106 -52 -182 -170q-66 -107 -66 -207q0 -67 39 -118q76 11 131 8q74 -4 103 -29
q13 -9 15.5 -23t-7.5 -26q-30 -30 -99 -21q-96 10 -157 68q-119 -27 -228 -100q-91 -60 -163.5 -152t-116.5 -197q-59 -139 -31 -256q15 -60 62.5 -98t107.5 -37q103 -2 236 64q97 49 204 135q112 87 215 190l21 15q0 -8 -21 -29q-96 -107 -204 -190q-96 -74 -199 -129
q-51 -27 -101.5 -45t-109.5 -28t-113.5 6t-93.5 60q-40 44 -53 113.5t0 128.5q19 114 98 236q112 175 295 266q78 40 180 63q-21 26 -36 62q-30 77 -9.5 155.5t68.5 143.5t113 110q123 84 247 84q77 0 119 -39zM778 784q-72 0 -121 -10q50 -50 134 -57q42 -4 63 2
q37 16 18 37q-9 11 -28.5 17.5t-29.5 7.5t-36 3zM1001 1448q-7 -15 -21 -25t-26 -10t-15.5 11t3.5 26q8 14 21.5 24.5t25.5 10.5t15.5 -11t-3.5 -26zM1178 1448q-7 -15 -21.5 -25t-26.5 -10t-15.5 11t3.5 26q8 14 21.5 24.5t25.5 10.5t16 -11t-3 -26z" />
    <glyph glyph-name="Igrave" unicode="&#xcc;" horiz-adv-x="1177" 
d="M1200 1157q25 17 29 2q2 -8 -2 -18.5t-13 -25t-10 -17.5q-38 -73 -114.5 -221t-114.5 -222q-195 -360 -311 -563q-14 -24 -31 -47q129 6 241 -2q86 -8 127 -18q74 -19 72 -27q-1 -2 -18 4q-185 46 -486 16q-115 -10 -276 -38q-186 -38 -264 -72q-43 -15 -68 -21
q-25 -8 -27 4q-2 10 17 23q34 24 137 51q230 63 535 80q11 33 30 72q45 85 122 243t112 226q101 197 262 501q21 46 51 70zM401 1014q-45 -32 -69 -74q-18 -35 -25 -14q-5 15 0 39q6 24 22 44.5t42.5 38.5t43 27t48.5 25q155 78 434 133q267 51 520 57q230 4 371 -30
q37 -9 77 -28q13 -7 11 -9q-1 -1 -8.5 1.5t-17.5 6t-13 4.5q-149 46 -391 39q-252 -8 -543 -72q-144 -29 -264 -72q-164 -58 -238 -116zM1427 1350q2 -1 10 -3t13.5 -3.5t5.5 -2.5q0 -4 -25.5 0.5t-35.5 8.5q-36 10 -88.5 42.5t-75.5 71.5q-8 14 1 26q9 11 17 -5
q60 -94 178 -135z" />
    <glyph glyph-name="Iacute" unicode="&#xcd;" horiz-adv-x="1177" 
d="M1200 1157q25 17 29 2q2 -8 -2 -18.5t-13 -25t-10 -17.5q-38 -73 -114.5 -221t-114.5 -222q-195 -360 -311 -563q-14 -24 -31 -47q129 6 241 -2q86 -8 127 -18q74 -19 72 -27q-1 -2 -18 4q-185 46 -486 16q-115 -10 -276 -38q-186 -38 -264 -72q-43 -15 -68 -21
q-25 -8 -27 4q-2 10 17 23q34 24 137 51q230 63 535 80q11 33 30 72q45 85 122 243t112 226q101 197 262 501q21 46 51 70zM401 1014q-45 -32 -69 -74q-18 -35 -25 -14q-5 15 0 39q6 24 22 44.5t42.5 38.5t43 27t48.5 25q155 78 434 133q267 51 520 57q230 4 371 -30
q37 -9 77 -28q13 -7 11 -9q-1 -1 -8.5 1.5t-17.5 6t-13 4.5q-149 46 -391 39q-252 -8 -543 -72q-144 -29 -264 -72q-164 -58 -238 -116zM1540 1479q4 -3 1 -9t-5.5 -9t-8.5 -7.5t-7 -5.5q-99 -75 -240 -98q-29 -4 -35 2q63 11 131 41q65 29 133 82q6 6 15.5 8t15.5 -4z" />
    <glyph glyph-name="Icircumflex" unicode="&#xce;" horiz-adv-x="1177" 
d="M1200 1157q25 17 29 2q2 -8 -2 -18.5t-13 -25t-10 -17.5q-38 -73 -114.5 -221t-114.5 -222q-195 -360 -311 -563q-14 -24 -31 -47q129 6 241 -2q86 -8 127 -18q74 -19 72 -27q-1 -2 -18 4q-185 46 -486 16q-115 -10 -276 -38q-186 -38 -264 -72q-43 -15 -68 -21
q-25 -8 -27 4q-2 10 17 23q34 24 137 51q230 63 535 80q11 33 30 72q45 85 122 243t112 226q101 197 262 501q21 46 51 70zM401 1014q-45 -32 -69 -74q-18 -35 -25 -14q-5 15 0 39q6 24 22 44.5t42.5 38.5t43 27t48.5 25q155 78 434 133q267 51 520 57q230 4 371 -30
q37 -9 77 -28q13 -7 11 -9q-1 -1 -8.5 1.5t-17.5 6t-13 4.5q-149 46 -391 39q-252 -8 -543 -72q-144 -29 -264 -72q-164 -58 -238 -116zM1540 1352q1 -1 5.5 -4t9 -5.5t4.5 -3.5q0 -5 -9 -2q-23 10 -35 22.5t-28 37.5q-36 56 -53 96q-78 -40 -93 -47q-5 -2 -35.5 -15.5
t-50.5 -21.5t-50.5 -16t-35.5 0q38 11 121 51q37 20 142 80q6 4 16.5 3.5t13.5 -7.5q2 -7 -4 -13q4 -9 11.5 -28.5t11.5 -28.5q1 -2 4.5 -10t4.5 -11t4.5 -10.5t5 -11t5 -10t6 -10.5t6.5 -9.5t7 -9.5t7.5 -8.5t8.5 -7.5z" />
    <glyph glyph-name="Idieresis" unicode="&#xcf;" horiz-adv-x="1177" 
d="M1200 1157q25 17 29 2q2 -8 -2 -18.5t-13 -25t-10 -17.5q-38 -73 -114.5 -221t-114.5 -222q-195 -360 -311 -563q-14 -24 -31 -47q129 6 241 -2q86 -8 127 -18q74 -19 72 -27q-1 -2 -18 4q-185 46 -486 16q-115 -10 -276 -38q-186 -38 -264 -72q-43 -15 -68 -21
q-25 -8 -27 4q-2 10 17 23q34 24 137 51q230 63 535 80q11 33 30 72q45 85 122 243t112 226q101 197 262 501q21 46 51 70zM401 1014q-45 -32 -69 -74q-18 -35 -25 -14q-5 15 0 39q6 24 22 44.5t42.5 38.5t43 27t48.5 25q155 78 434 133q267 51 520 57q230 4 371 -30
q37 -9 77 -28q13 -7 11 -9q-1 -1 -8.5 1.5t-17.5 6t-13 4.5q-149 46 -391 39q-252 -8 -543 -72q-144 -29 -264 -72q-164 -58 -238 -116zM1323 1415q-7 -15 -21 -25t-26 -10t-15.5 11t3.5 26q8 14 21.5 24.5t25.5 10.5t15.5 -11t-3.5 -26zM1499 1415q-7 -15 -21 -25t-26 -10
t-15.5 11t3.5 26q8 14 21.5 24.5t25.5 10.5t15.5 -11t-3.5 -26z" />
    <glyph glyph-name="Eth" unicode="&#xd0;" 
d="M1073 319q42 -14 90 -40q18 -11 44.5 -34.5t21.5 -27.5q-1 0 -4 2t-7 5t-6 5q-60 51 -151 78q-229 -218 -535 -330q-137 -50 -258 -67q-82 -11 -139 -6q-79 8 -117 41q-52 40 -28 106q12 33 63 84q88 85 225 137q70 27 93 33l165 301q-114 -32 -180 -59q-32 -12 -47 -2
q-6 2 -5.5 7.5t5.5 8.5q97 46 246 78q11 21 246 430q12 21 39 67t45.5 78t23.5 43q-200 -3 -387 -72t-315 -202q-95 -95 -109 -170q-8 -36 10 -57q18 -15 54 -15q8 0 28.5 2.5t30.5 1.5q22 -4 -6 -22q-3 -3 -6 -4q-63 -30 -109 4q-49 33 -26 108q32 101 155 201
q99 83 209 131q237 106 481 109q16 31 43 61q25 24 35 29q20 7 8 -25l-12 -26q-10 -20 -22 -41q138 -6 245 -64q61 -33 109 -94q80 -104 63 -250q-8 -63 -39 -145q-90 -224 -270 -398zM743 670q33 6 100 4q23 -1 21 -4q-1 -2 -20 -8q-105 -10 -254 -41q-62 -109 -176 -302
q321 81 614 13q177 172 260 375q18 44 29.5 79.5t19.5 78t4.5 84t-18.5 81.5q-42 114 -162 174q-85 44 -205 51q-22 -38 -63 -109t-51 -89l-234 -406q9 0 13 2q75 15 122 17zM403 301q-96 -160 -133 -213q-16 -26 -26 -33q-4 -3 1 11l3 10q14 33 31.5 68.5t40 77t34.5 65.5
q-45 -14 -135 -54q-116 -56 -184 -135q-51 -55 -39 -100q12 -52 94 -70q100 -20 248 17q135 33 240 80q243 105 438 294q-276 68 -613 -18z" />
    <glyph glyph-name="Ntilde" unicode="&#xd1;" horiz-adv-x="1114" 
d="M2273 1393q11 -11 8 -15q-2 -2 -18 6q-93 49 -211 21q-116 -26 -246 -100q-223 -128 -411 -325t-334 -437q-103 -166 -232 -457q-19 -51 -34 -78q-6 -9 -14 -13t-17 5q-4 6 -4 27q2 96 33 270q53 290 122 545q6 20 70 260q-121 -179 -174 -252q-179 -256 -330 -447
q-195 -243 -366 -399q-101 -94 -181 -141q-67 -36 -106 -47q-25 -6 -53 -2q-33 6 -33 24q0 5 3 7.5t9 3.5t10 1.5t11 0t8 -0.5q23 0 55 7q58 14 117 51q97 57 205 162q159 151 364 415q162 205 326 455q84 131 141 229q14 23 27 19q16 -4 12 -35q-15 -79 -36 -173
t-35.5 -157.5t-42.5 -177.5t-39 -162q-67 -286 -80 -399q109 230 118 246q85 172 197 332q154 222 350 409q236 228 436 320q111 52 213 55q59 3 115 -21q30 -15 47 -32zM1599 1391q3 -1 -6 -12t-14 -17q-61 -61 -133 -43q-10 2 -30 8.5t-36 10t-32 3.5q-29 0 -86 -34
q-9 -7 -20 -9.5t-19 7.5q-1 3 4.5 9t12 10.5t15 10t9.5 6.5q58 39 125 21q11 -3 30 -9.5t30.5 -10t31 -6t32.5 2.5q26 6 54 27q3 2 11 9t14 12t7 4z" />
    <glyph glyph-name="Ograve" unicode="&#xd2;" horiz-adv-x="923" 
d="M1855 1360q6 -1 -12 -14q-63 -39 -110 -62q-218 -107 -484 -170q-63 -15 -100 -22q10 -82 -16 -199q-27 -116 -97 -246q-128 -233 -331 -420q-111 -99 -211 -161q-146 -89 -248 -91q-53 -2 -99.5 23t-72.5 70q-30 61 -33 133q-8 155 80 350q98 219 266 399q83 90 164 146
q74 51 131 63q34 0 16 -12q-105 -62 -176 -125q-79 -68 -160 -162q-176 -212 -251 -424q-42 -106 -45 -211q-4 -118 55 -180q37 -39 97 -45t110 14q96 34 223 133q189 153 358 390q192 271 209 485q3 30 0 65q-173 -27 -270 -12q-79 13 -84 66q-2 50 65 94q59 39 115 47
q73 11 119 -22q68 -53 82 -150q13 2 36 7t33 7q250 61 469 156q22 10 69.5 33t70.5 33q3 1 14.5 7t17.5 7zM948 1083q65 2 168 21q-11 105 -80 147q-58 25 -123 6t-112 -67q-29 -29 -21 -57q8 -24 40 -35.5t56.5 -13t71.5 -1.5zM1147 1350q2 -1 10 -3t13.5 -3.5t5.5 -2.5
q0 -4 -26 0.5t-36 8.5q-36 10 -88.5 42.5t-75.5 71.5q-9 14 2 26q9 11 17 -5q60 -94 178 -135z" />
    <glyph glyph-name="Oacute" unicode="&#xd3;" horiz-adv-x="923" 
d="M1855 1360q6 -1 -12 -14q-63 -39 -110 -62q-218 -107 -484 -170q-63 -15 -100 -22q10 -82 -16 -199q-27 -116 -97 -246q-128 -233 -331 -420q-111 -99 -211 -161q-146 -89 -248 -91q-53 -2 -99.5 23t-72.5 70q-30 61 -33 133q-8 155 80 350q98 219 266 399q83 90 164 146
q74 51 131 63q34 0 16 -12q-105 -62 -176 -125q-79 -68 -160 -162q-176 -212 -251 -424q-42 -106 -45 -211q-4 -118 55 -180q37 -39 97 -45t110 14q96 34 223 133q189 153 358 390q192 271 209 485q3 30 0 65q-173 -27 -270 -12q-79 13 -84 66q-2 50 65 94q59 39 115 47
q73 11 119 -22q68 -53 82 -150q13 2 36 7t33 7q250 61 469 156q22 10 69.5 33t70.5 33q3 1 14.5 7t17.5 7zM948 1083q65 2 168 21q-11 105 -80 147q-58 25 -123 6t-112 -67q-29 -29 -21 -57q8 -24 40 -35.5t56.5 -13t71.5 -1.5zM1245 1479q4 -3 1 -9t-5.5 -9t-8.5 -7.5
t-7 -5.5q-99 -75 -240 -98q-29 -4 -35 2q63 11 131 41q65 29 133 82q6 6 15.5 8t15.5 -4z" />
    <glyph glyph-name="Ocircumflex" unicode="&#xd4;" horiz-adv-x="923" 
d="M1855 1360q6 -1 -12 -14q-63 -39 -110 -62q-218 -107 -484 -170q-63 -15 -100 -22q10 -82 -16 -199q-27 -116 -97 -246q-128 -233 -331 -420q-111 -99 -211 -161q-146 -89 -248 -91q-53 -2 -99.5 23t-72.5 70q-30 61 -33 133q-8 155 80 350q98 219 266 399q83 90 164 146
q74 51 131 63q34 0 16 -12q-105 -62 -176 -125q-79 -68 -160 -162q-176 -212 -251 -424q-42 -106 -45 -211q-4 -118 55 -180q37 -39 97 -45t110 14q96 34 223 133q189 153 358 390q192 271 209 485q3 30 0 65q-173 -27 -270 -12q-79 13 -84 66q-2 50 65 94q59 39 115 47
q73 11 119 -22q68 -53 82 -150q13 2 36 7t33 7q250 61 469 156q22 10 69.5 33t70.5 33q3 1 14.5 7t17.5 7zM948 1083q65 2 168 21q-11 105 -80 147q-58 25 -123 6t-112 -67q-29 -29 -21 -57q8 -24 40 -35.5t56.5 -13t71.5 -1.5zM1219 1352q1 -1 5.5 -4t8.5 -5.5t4 -3.5
q0 -5 -8 -2q-23 10 -36 23t-28 37q-36 56 -53 96q-85 -44 -92 -47q-5 -2 -35.5 -15.5t-50.5 -21.5t-50.5 -16t-35.5 0q38 11 121 51q24 13 141 80q6 4 17 3.5t14 -7.5q2 -7 -4 -13q4 -9 11 -28.5t11 -28.5q32 -76 60 -98z" />
    <glyph glyph-name="Otilde" unicode="&#xd5;" horiz-adv-x="923" 
d="M1855 1360q6 -1 -12 -14q-63 -39 -110 -62q-218 -107 -484 -170q-63 -15 -100 -22q10 -82 -16 -199q-27 -116 -97 -246q-128 -233 -331 -420q-111 -99 -211 -161q-146 -89 -248 -91q-53 -2 -99.5 23t-72.5 70q-30 61 -33 133q-8 155 80 350q98 219 266 399q83 90 164 146
q74 51 131 63q34 0 16 -12q-105 -62 -176 -125q-79 -68 -160 -162q-176 -212 -251 -424q-42 -106 -45 -211q-4 -118 55 -180q37 -39 97 -45t110 14q96 34 223 133q189 153 358 390q192 271 209 485q3 30 0 65q-173 -27 -270 -12q-79 13 -84 66q-2 50 65 94q59 39 115 47
q73 11 119 -22q68 -53 82 -150q13 2 36 7t33 7q250 61 469 156q22 10 69.5 33t70.5 33q3 1 14.5 7t17.5 7zM948 1083q65 2 168 21q-11 105 -80 147q-58 25 -123 6t-112 -67q-29 -29 -21 -57q8 -24 40 -35.5t56.5 -13t71.5 -1.5zM1280 1423q3 -1 -5.5 -11.5t-14.5 -16.5
q-61 -61 -134 -43q-10 2 -30 8.5t-36 10t-32 3.5q-28 0 -86 -35q-9 -7 -20 -9.5t-19 7.5q-1 3 2.5 7t9 8.5t11 8.5t11.5 8t7 5q58 39 125 21q11 -3 30.5 -9.5t30.5 -10t31 -6t33 2.5q24 5 53 27q2 1 11 8.5t15 12t7 3.5z" />
    <glyph glyph-name="Odieresis" unicode="&#xd6;" horiz-adv-x="923" 
d="M1855 1360q6 -1 -12 -14q-63 -39 -110 -62q-218 -107 -484 -170q-63 -15 -100 -22q10 -82 -16 -199q-27 -116 -97 -246q-128 -233 -331 -420q-111 -99 -211 -161q-146 -89 -248 -91q-53 -2 -99.5 23t-72.5 70q-30 61 -33 133q-8 155 80 350q98 219 266 399q83 90 164 146
q74 51 131 63q34 0 16 -12q-105 -62 -176 -125q-79 -68 -160 -162q-176 -212 -251 -424q-42 -106 -45 -211q-4 -118 55 -180q37 -39 97 -45t110 14q96 34 223 133q189 153 358 390q192 271 209 485q3 30 0 65q-173 -27 -270 -12q-79 13 -84 66q-2 50 65 94q59 39 115 47
q73 11 119 -22q68 -53 82 -150q13 2 36 7t33 7q250 61 469 156q22 10 69.5 33t70.5 33q3 1 14.5 7t17.5 7zM948 1083q65 2 168 21q-11 105 -80 147q-58 25 -123 6t-112 -67q-29 -29 -21 -57q8 -24 40 -35.5t56.5 -13t71.5 -1.5zM991 1415q-7 -15 -21 -25t-26 -10t-15.5 11
t3.5 26q8 14 21.5 24.5t25.5 10.5t15.5 -11t-3.5 -26zM1167 1415q-7 -15 -21 -25t-26 -10t-15.5 11t3.5 26q8 14 21.5 24.5t25.5 10.5t15.5 -11t-3.5 -26z" />
    <glyph glyph-name="multiply" unicode="&#xd7;" horiz-adv-x="806" 
d="M705 598q15 7 16 1q0 -2 -6 -7q-20 -18 -90 -57q-69 -43 -105 -68q-86 -56 -139 -98q24 -43 37 -78q26 -77 37 -123q2 -9 12 -59q6 -30 2 -37q-4 -8 -11 11q-7 16 -7 21q-9 39 -15 58q-14 57 -41 123q-6 12 -17.5 33.5t-17.5 33.5q-157 -123 -260 -231q-23 -23 -37 -31
q-2 -2 -11.5 -5.5t-12.5 -0.5q-6 11 12 33q5 5 14.5 15t14.5 15q74 77 149 138q59 47 117 90q-39 62 -92 121l-6 6q-9 9 -15 23.5t3 23.5q14 5 49 -39q48 -54 86 -119q60 44 184 123q20 11 56.5 33.5t50.5 30.5q27 15 43 20z" />
    <glyph glyph-name="Oslash" unicode="&#xd8;" horiz-adv-x="923" 
d="M1217 1303q18 9 17 1q0 -2 -5 -8q-8 -11 -43 -41q-12 -10 -35 -30.5t-35 -30.5q24 -46 29 -84q13 2 36 7t33 7q250 61 469 156q22 10 69.5 33t70.5 33q3 1 14.5 7t17.5 7q6 -1 -12 -14q-63 -39 -110 -62q-218 -107 -484 -170q-63 -15 -100 -22q10 -82 -16 -199
q-27 -116 -97 -246q-128 -233 -331 -420q-111 -99 -211 -161q-146 -89 -248 -91q-53 -2 -99.5 23t-72.5 70q-14 29 -17 38q-4 -4 -12 -13t-12 -13q-48 -58 -88 -96q-11 -11 -8 -4q2 6 8 14q4 6 11 16t9 13q9 11 38.5 48.5t47.5 57.5q-10 38 -10 72q-8 155 80 350
q98 219 266 399q83 90 164 146q74 51 131 63q34 0 16 -12q-105 -62 -176 -125q-79 -68 -160 -162q-176 -212 -251 -424q-42 -106 -45 -211q-3 -33 4 -75l73 86q383 439 799 833q-63 0 -94 6q-79 13 -84 66q-2 50 65 94q59 39 115 47q73 11 119 -22q25 -21 39 -41q1 1 4 3
t4 3q78 64 107 78zM1118 1087q-71 -13 -133 -16q-222 -212 -516 -520q-114 -119 -393 -424q13 -50 45 -82q37 -39 97 -45t110 14q96 34 223 133q189 153 358 390q192 271 209 485q3 30 0 65zM948 1083h8q86 78 129 119q-22 33 -49 49q-58 25 -123 6t-112 -67
q-29 -29 -21 -57q8 -24 40 -35.5t56.5 -13t71.5 -1.5zM1116 1104q-8 48 -18 72q-49 -44 -97 -91q45 5 115 19z" />
    <glyph glyph-name="Ugrave" unicode="&#xd9;" horiz-adv-x="1075" 
d="M1395 1278q2 -3 2.5 -6.5t-1 -8.5t-3.5 -10t-6 -11t-7.5 -11.5t-9.5 -13l-10 -12.5t-10 -13l-9 -12q-127 -166 -161 -217q-79 -119 -140 -230q-124 -234 -217 -489q0 -1 -7 -20.5t-11.5 -35t-11.5 -40t-10 -44.5t-4 -40t4 -34t16 -20q20 -11 59 8q32 17 65.5 44t53.5 47
t56.5 59.5t51.5 54.5q4 4 12 13t13 14q4 4 5 1t-1 -5q-79 -103 -145 -164q-13 -12 -26 -23t-35 -28t-41.5 -26t-40 -14t-36.5 4t-24 32q-14 39 4 127q72 318 252 616q1 1 45 76q-187 -240 -362 -440q-10 -11 -44 -50.5t-46.5 -53.5t-43.5 -49t-48 -52l-46.5 -46.5t-52 -48
t-51 -41t-56.5 -40.5q-134 -91 -211 -82q-32 4 -48 30.5t-14.5 57.5t5.5 59q18 82 59.5 175t74.5 150.5t96 159.5q56 87 170.5 239.5t158.5 215.5q68 100 90 152q15 34 0 54t-49 23.5t-63.5 2t-55.5 -6.5q-120 -19 -260 -77q-130 -57 -233 -125q-237 -150 -371 -357
q-2 -3 -9.5 -15.5t-12.5 -18.5q-21 -29 -21 -8v3q3 25 41 84q56 82 156 168q73 65 160 123q248 165 485 230q56 15 135 22q86 4 117 -27q36 -33 -21 -155q-11 -21 -22 -41t-25 -43t-24 -39t-27.5 -41.5t-25 -37.5t-28.5 -41t-26.5 -37t-29 -41t-27.5 -38
q-115 -161 -193 -283.5t-137 -250.5q-9 -18 -20.5 -48t-23.5 -70t-9.5 -73t22.5 -43q16 -5 34 -4.5t31.5 3t34 11t30 13.5t30.5 16q97 57 209 166q155 147 362 410q52 65 108.5 138.5t125.5 164.5t106 139q86 115 148 187q3 4 11 13t12.5 14.5t11.5 13.5t12.5 12t11 7t10 3
t7.5 -4zM1141 1350q2 -1 9.5 -3t13 -3.5t5.5 -2.5q0 -4 -25.5 0.5t-35.5 8.5q-36 10 -88.5 42.5t-75.5 71.5q-9 14 2 26q9 11 17 -5q60 -94 178 -135z" />
    <glyph glyph-name="Uacute" unicode="&#xda;" horiz-adv-x="1075" 
d="M1395 1278q2 -3 2.5 -6.5t-1 -8.5t-3.5 -10t-6 -11t-7.5 -11.5t-9.5 -13l-10 -12.5t-10 -13l-9 -12q-127 -166 -161 -217q-79 -119 -140 -230q-124 -234 -217 -489q0 -1 -7 -20.5t-11.5 -35t-11.5 -40t-10 -44.5t-4 -40t4 -34t16 -20q20 -11 59 8q32 17 65.5 44t53.5 47
t56.5 59.5t51.5 54.5q4 4 12 13t13 14q4 4 5 1t-1 -5q-79 -103 -145 -164q-13 -12 -26 -23t-35 -28t-41.5 -26t-40 -14t-36.5 4t-24 32q-14 39 4 127q72 318 252 616q1 1 45 76q-187 -240 -362 -440q-10 -11 -44 -50.5t-46.5 -53.5t-43.5 -49t-48 -52l-46.5 -46.5t-52 -48
t-51 -41t-56.5 -40.5q-134 -91 -211 -82q-32 4 -48 30.5t-14.5 57.5t5.5 59q18 82 59.5 175t74.5 150.5t96 159.5q56 87 170.5 239.5t158.5 215.5q68 100 90 152q15 34 0 54t-49 23.5t-63.5 2t-55.5 -6.5q-120 -19 -260 -77q-130 -57 -233 -125q-237 -150 -371 -357
q-2 -3 -9.5 -15.5t-12.5 -18.5q-21 -29 -21 -8v3q3 25 41 84q56 82 156 168q73 65 160 123q248 165 485 230q56 15 135 22q86 4 117 -27q36 -33 -21 -155q-11 -21 -22 -41t-25 -43t-24 -39t-27.5 -41.5t-25 -37.5t-28.5 -41t-26.5 -37t-29 -41t-27.5 -38
q-115 -161 -193 -283.5t-137 -250.5q-9 -18 -20.5 -48t-23.5 -70t-9.5 -73t22.5 -43q16 -5 34 -4.5t31.5 3t34 11t30 13.5t30.5 16q97 57 209 166q155 147 362 410q52 65 108.5 138.5t125.5 164.5t106 139q86 115 148 187q3 4 11 13t12.5 14.5t11.5 13.5t12.5 12t11 7t10 3
t7.5 -4zM1225 1479q4 -3 1 -9t-6 -9t-9 -7.5t-7 -5.5q-99 -75 -239 -98q-29 -4 -35 2q63 11 131 41q65 29 133 82q6 6 15.5 8t15.5 -4z" />
    <glyph glyph-name="Ucircumflex" unicode="&#xdb;" horiz-adv-x="1075" 
d="M1395 1278q2 -3 2.5 -6.5t-1 -8.5t-3.5 -10t-6 -11t-7.5 -11.5t-9.5 -13l-10 -12.5t-10 -13l-9 -12q-127 -166 -161 -217q-79 -119 -140 -230q-124 -234 -217 -489q0 -1 -7 -20.5t-11.5 -35t-11.5 -40t-10 -44.5t-4 -40t4 -34t16 -20q20 -11 59 8q32 17 65.5 44t53.5 47
t56.5 59.5t51.5 54.5q4 4 12 13t13 14q4 4 5 1t-1 -5q-79 -103 -145 -164q-13 -12 -26 -23t-35 -28t-41.5 -26t-40 -14t-36.5 4t-24 32q-14 39 4 127q72 318 252 616q1 1 45 76q-187 -240 -362 -440q-10 -11 -44 -50.5t-46.5 -53.5t-43.5 -49t-48 -52l-46.5 -46.5t-52 -48
t-51 -41t-56.5 -40.5q-134 -91 -211 -82q-32 4 -48 30.5t-14.5 57.5t5.5 59q18 82 59.5 175t74.5 150.5t96 159.5q56 87 170.5 239.5t158.5 215.5q68 100 90 152q15 34 0 54t-49 23.5t-63.5 2t-55.5 -6.5q-120 -19 -260 -77q-130 -57 -233 -125q-237 -150 -371 -357
q-2 -3 -9.5 -15.5t-12.5 -18.5q-21 -29 -21 -8v3q3 25 41 84q56 82 156 168q73 65 160 123q248 165 485 230q56 15 135 22q86 4 117 -27q36 -33 -21 -155q-11 -21 -22 -41t-25 -43t-24 -39t-27.5 -41.5t-25 -37.5t-28.5 -41t-26.5 -37t-29 -41t-27.5 -38
q-115 -161 -193 -283.5t-137 -250.5q-9 -18 -20.5 -48t-23.5 -70t-9.5 -73t22.5 -43q16 -5 34 -4.5t31.5 3t34 11t30 13.5t30.5 16q97 57 209 166q155 147 362 410q52 65 108.5 138.5t125.5 164.5t106 139q86 115 148 187q3 4 11 13t12.5 14.5t11.5 13.5t12.5 12t11 7t10 3
t7.5 -4zM1235 1352q1 -1 5.5 -4t8.5 -5.5t4 -3.5q0 -5 -8 -2q-23 10 -35 22.5t-28 37.5q-39 60 -54 96q-85 -44 -92 -47q-5 -2 -35.5 -15.5t-50.5 -21.5t-50.5 -16t-35.5 0q38 11 121 51q23 13 141 80q6 4 17 3.5t14 -7.5q2 -7 -4 -13q4 -9 11.5 -28.5t11.5 -28.5
q1 -2 4.5 -10t4.5 -11t4.5 -10.5t5 -11t5 -10t6 -10.5t6.5 -9.5t7 -9.5t7.5 -8.5t8.5 -7.5z" />
    <glyph glyph-name="Udieresis" unicode="&#xdc;" horiz-adv-x="1075" 
d="M1395 1278q2 -3 2.5 -6.5t-1 -8.5t-3.5 -10t-6 -11t-7.5 -11.5t-9.5 -13l-10 -12.5t-10 -13l-9 -12q-127 -166 -161 -217q-79 -119 -140 -230q-124 -234 -217 -489q0 -1 -7 -20.5t-11.5 -35t-11.5 -40t-10 -44.5t-4 -40t4 -34t16 -20q20 -11 59 8q32 17 65.5 44t53.5 47
t56.5 59.5t51.5 54.5q4 4 12 13t13 14q4 4 5 1t-1 -5q-79 -103 -145 -164q-13 -12 -26 -23t-35 -28t-41.5 -26t-40 -14t-36.5 4t-24 32q-14 39 4 127q72 318 252 616q1 1 45 76q-187 -240 -362 -440q-10 -11 -44 -50.5t-46.5 -53.5t-43.5 -49t-48 -52l-46.5 -46.5t-52 -48
t-51 -41t-56.5 -40.5q-134 -91 -211 -82q-32 4 -48 30.5t-14.5 57.5t5.5 59q18 82 59.5 175t74.5 150.5t96 159.5q56 87 170.5 239.5t158.5 215.5q68 100 90 152q15 34 0 54t-49 23.5t-63.5 2t-55.5 -6.5q-120 -19 -260 -77q-130 -57 -233 -125q-237 -150 -371 -357
q-2 -3 -9.5 -15.5t-12.5 -18.5q-21 -29 -21 -8v3q3 25 41 84q56 82 156 168q73 65 160 123q248 165 485 230q56 15 135 22q86 4 117 -27q36 -33 -21 -155q-11 -21 -22 -41t-25 -43t-24 -39t-27.5 -41.5t-25 -37.5t-28.5 -41t-26.5 -37t-29 -41t-27.5 -38
q-115 -161 -193 -283.5t-137 -250.5q-9 -18 -20.5 -48t-23.5 -70t-9.5 -73t22.5 -43q16 -5 34 -4.5t31.5 3t34 11t30 13.5t30.5 16q97 57 209 166q155 147 362 410q52 65 108.5 138.5t125.5 164.5t106 139q86 115 148 187q3 4 11 13t12.5 14.5t11.5 13.5t12.5 12t11 7t10 3
t7.5 -4zM1042 1415q-7 -15 -21 -25t-26 -10t-15.5 11t3.5 26q8 14 21.5 24.5t25.5 10.5t15.5 -11t-3.5 -26zM1219 1415q-7 -15 -21.5 -25t-26.5 -10t-15.5 11t3.5 26q8 14 21.5 24.5t25.5 10.5t16 -11t-3 -26z" />
    <glyph glyph-name="Yacute" unicode="&#xdd;" horiz-adv-x="874" 
d="M983 690q-228 -361 -266 -418q164 82 248 119q10 4 28 11.5t44 18t44.5 17t18.5 4.5q0 -1 -2.5 -3t-7.5 -4.5t-11.5 -5.5l-13 -6t-11.5 -5t-9 -4t-5 -2q-23 -9 -84 -39q-38 -17 -81 -38.5t-95.5 -49t-81.5 -41.5q-25 -41 -74 -115t-67 -102q-119 -179 -176 -258
q-81 -114 -166 -205q-112 -122 -203 -180q-74 -45 -116 -41q-26 3 -41.5 23t-18.5 48q-7 96 84 236q119 179 387 370q152 111 326 205q110 180 311 496l123 184q-14 -15 -65.5 -74t-79.5 -90q-226 -248 -402 -370q-27 -18 -59.5 -37t-81.5 -44t-93 -36.5t-84 -12t-64 26
t-25 80.5q2 30 6.5 58.5t16 60t18.5 53t27.5 56.5t27.5 49.5t34.5 53.5t32.5 46.5t36.5 51t33.5 46.5q26 34 84.5 105.5t87.5 111.5q2 3 16 21.5t17 23.5t15 22t16.5 24.5l13.5 22.5t14 25.5t11 24.5t10 27q6 23 -3 37.5t-30.5 19t-45.5 5t-53 -4t-47.5 -8.5t-33.5 -8
q-146 -37 -279 -107q-120 -61 -225 -147q-130 -107 -172 -236q-3 -8 -8 -26t-8 -27q-3 -11 -9.5 -13t-11.5 11q-14 42 19 111q47 96 172 190q101 80 225 143q130 68 244 105q81 26 131 33q92 13 133 -11q46 -25 22 -94q-19 -56 -57 -117q-54 -86 -164.5 -233t-155.5 -215
q-16 -24 -31.5 -51t-41.5 -75t-38.5 -88.5t-17.5 -79.5t16.5 -60.5t67.5 -20.5q96 9 242 94q97 60 211 162q157 141 371 395q13 16 59.5 72t71.5 88q25 31 82.5 106.5t89.5 114.5q26 33 37 37q9 2 16 -4q5 -4 5.5 -9t-3 -11t-6.5 -9.5t-10 -11.5t-9 -10q-51 -61 -94 -121
q-114 -160 -309 -467zM342 -221q86 125 270 416q-141 -82 -250 -158q-258 -177 -391 -354q-90 -120 -106 -234q-5 -52 12 -67q25 -25 92 12q85 48 199 170q97 105 174 215zM1225 1479q4 -3 1 -9t-6 -9t-9 -7.5t-7 -5.5q-99 -75 -239 -98q-29 -4 -35 2q63 11 131 41
q65 29 133 82q6 6 15.5 8t15.5 -4z" />
    <glyph glyph-name="Thorn" unicode="&#xde;" horiz-adv-x="1120" 
d="M1008 1071q62 -8 117.5 -26.5t105 -50t79 -82.5t29.5 -115q0 -156 -196 -340q-98 -87 -217 -150t-244 -92q-105 -25 -188 -14q-117 -191 -172 -269q-16 -22 -21 -22q-1 2 -0.5 4t3 8t3.5 8q19 43 42 86.5t60.5 108.5t47.5 84q-35 10 -60 32.5t-28 55.5q-3 31 12 55
q6 10 14 20t11 9q1 -1 -3 -7l-9 -13.5l-7 -10.5q-11 -22 -8 -47q3 -31 28 -52t58 -30q128 225 250 434q184 318 233 402q-258 26 -534 -94q-140 -59 -260 -154q-90 -77 -147 -147t-77 -154q-5 -30 25 -47q16 -12 15 -16q-2 -3 -7 -5q-16 -3 -29 2q-25 9 -33.5 33t-5 46.5
t12.5 45.5q21 52 88 131q170 184 434 287q264 105 528 90q12 20 35.5 62t38 67t36.5 59.5t42 61.5q2 2 9 10t12.5 13.5t12.5 10t13 3.5q15 -4 -8 -43q-18 -37 -41 -77.5t-53.5 -91t-46.5 -79.5zM1047 420q49 38 91 80t82 95.5t61 115t15 120.5q-6 50 -35 90t-73.5 65.5
t-91.5 41t-99 23.5q-36 -60 -106.5 -182t-106.5 -183q-248 -417 -282 -471q51 -5 123 6q215 35 422 199z" />
    <glyph glyph-name="germandbls" unicode="&#xdf;" horiz-adv-x="696" 
d="M997 1399q59 -19 88 -76t27 -123q-3 -119 -84.5 -229t-200.5 -183q-41 -24 -84.5 -41t-111.5 -37.5t-90 -27.5q-20 -27 -20.5 -74t14.5 -125q208 33 339 -20q3 -1 12 -6t16 -10.5t5 -6.5q-1 -1 -6 1.5t-11.5 5.5t-8.5 4q-153 55 -342 16q3 -12 13.5 -44t15 -48.5t10 -43
t6.5 -48.5q6 -102 -56 -177q-91 -113 -209 -124q-62 -5 -114.5 23.5t-65.5 86.5q-22 102 92 225q104 115 281 160q-8 58 -8 88v15v17.5t0.5 16.5t1.5 18.5l3 16.5t5 17l7 14t9.5 13t12.5 9q162 49 235 97q84 54 155 134.5t111 174.5q67 160 -4 242q-27 33 -71 37t-81.5 -8.5
t-76.5 -35.5q-96 -54 -193 -178q-54 -66 -109 -151t-91 -148.5t-90 -163.5q-147 -276 -289 -557q2 0 18 8t30.5 15t16.5 4q-71 -49 -75 -49q-18 -37 -63.5 -130t-70.5 -143t-64 -124t-73 -134q-87 -151 -155 -219q-51 -51 -101 -69q-38 -13 -55 2q-16 16 -12 47
q4 36 21.5 81.5t34.5 76t48 81.5q55 93 150 222q138 178 278 284q270 555 449 836q83 131 164 229t178 166q140 100 239 70zM541 301q-2 31 -13 91.5t-12 68.5q-122 -29 -209 -96q-102 -81 -141 -172q-28 -67 -2 -123q26 -54 96 -68q59 -10 117 19.5t100 80.5q70 86 64 199z
M-350 -518q54 79 108.5 180.5t88 173.5t88.5 194q11 24 16 36q-76 -63 -154 -150q-158 -175 -266 -369q-44 -86 -55 -118q-3 -8 -8 -22.5t-10 -34t-3.5 -34t10.5 -16.5q34 -12 103 57q38 38 82 103z" />
    <glyph glyph-name="agrave" unicode="&#xe0;" horiz-adv-x="509" 
d="M606 352q7 7 9 4q0 -1 -1 -4q-6 -10 -14.5 -20t-21 -22.5t-17.5 -18.5q-59 -59 -88 -90l-30 -30l-33 -33t-29.5 -28.5t-35 -32.5t-31 -26.5t-35.5 -27.5q-8 -6 -18 -11.5t-21 -9t-18.5 2t-8.5 20.5q-2 34 29 102q15 30 39 74q-65 -65 -156.5 -134t-144.5 -69
q-33 0 -43.5 27.5t-4.5 62.5q7 51 45 121q71 122 175 192q138 91 239 72q55 -8 72 -49q7 -29 -4 -33q-3 -1 -6.5 0t-6 5t-4 6.5t-4 7.5t-2.5 6q-19 29 -52 38.5t-64 4t-64 -20.5q-80 -34 -162 -127q-63 -74 -114 -190q-44 -102 8 -98q62 5 150.5 74t146.5 139q54 62 59 69
q1 2 1.5 3.5t2 4t1 3t-0.5 1.5q18 22 39 35q4 2 9 3.5t10.5 2t9.5 -2.5t4 -9q-2 -13 -23 -45q-14 -23 -51.5 -79t-61.5 -98.5t-42 -84.5q-4 -8 -4 -16q13 0 47 24q19 14 57 47q59 52 113 107q15 16 45.5 47.5t46.5 46.5q31 31 47 45zM479 555q2 -1 9.5 -2.5t13.5 -3t6 -2.5
q0 -4 -26.5 0t-35.5 8q-35 10 -87.5 43t-75.5 72q-8 13 0.5 25t17.5 -5q60 -94 178 -135z" />
    <glyph glyph-name="aacute" unicode="&#xe1;" horiz-adv-x="509" 
d="M606 352q7 7 9 4q0 -1 -1 -4q-6 -10 -14.5 -20t-21 -22.5t-17.5 -18.5q-59 -59 -88 -90l-30 -30l-33 -33t-29.5 -28.5t-35 -32.5t-31 -26.5t-35.5 -27.5q-8 -6 -18 -11.5t-21 -9t-18.5 2t-8.5 20.5q-2 34 29 102q15 30 39 74q-65 -65 -156.5 -134t-144.5 -69
q-33 0 -43.5 27.5t-4.5 62.5q7 51 45 121q71 122 175 192q138 91 239 72q55 -8 72 -49q7 -29 -4 -33q-3 -1 -6.5 0t-6 5t-4 6.5t-4 7.5t-2.5 6q-19 29 -52 38.5t-64 4t-64 -20.5q-80 -34 -162 -127q-63 -74 -114 -190q-44 -102 8 -98q62 5 150.5 74t146.5 139q54 62 59 69
q1 2 1.5 3.5t2 4t1 3t-0.5 1.5q18 22 39 35q4 2 9 3.5t10.5 2t9.5 -2.5t4 -9q-2 -13 -23 -45q-14 -23 -51.5 -79t-61.5 -98.5t-42 -84.5q-4 -8 -4 -16q13 0 47 24q19 14 57 47q59 52 113 107q15 16 45.5 47.5t46.5 46.5q31 31 47 45zM561 682q4 -3 1 -9t-5.5 -9t-8.5 -7.5
t-7 -5.5q-99 -75 -240 -98q-29 -4 -35 2q63 11 131 41q65 29 133 82q6 6 15.5 8t15.5 -4z" />
    <glyph glyph-name="acircumflex" unicode="&#xe2;" horiz-adv-x="509" 
d="M606 352q7 7 9 4q0 -1 -1 -4q-6 -10 -14.5 -20t-21 -22.5t-17.5 -18.5q-59 -59 -88 -90l-30 -30l-33 -33t-29.5 -28.5t-35 -32.5t-31 -26.5t-35.5 -27.5q-8 -6 -18 -11.5t-21 -9t-18.5 2t-8.5 20.5q-2 34 29 102q15 30 39 74q-65 -65 -156.5 -134t-144.5 -69
q-33 0 -43.5 27.5t-4.5 62.5q7 51 45 121q71 122 175 192q138 91 239 72q55 -8 72 -49q7 -29 -4 -33q-3 -1 -6.5 0t-6 5t-4 6.5t-4 7.5t-2.5 6q-19 29 -52 38.5t-64 4t-64 -20.5q-80 -34 -162 -127q-63 -74 -114 -190q-44 -102 8 -98q62 5 150.5 74t146.5 139q54 62 59 69
q1 2 1.5 3.5t2 4t1 3t-0.5 1.5q18 22 39 35q4 2 9 3.5t10.5 2t9.5 -2.5t4 -9q-2 -13 -23 -45q-14 -23 -51.5 -79t-61.5 -98.5t-42 -84.5q-4 -8 -4 -16q13 0 47 24q19 14 57 47q59 52 113 107q15 16 45.5 47.5t46.5 46.5q31 31 47 45zM543 518q1 -1 5.5 -3.5t8.5 -5t4 -3.5
q0 -5 -8 -2q-23 10 -36 22.5t-28 36.5q-36 56 -53 96q-85 -44 -92 -47q-5 -2 -35.5 -15.5t-50.5 -21.5t-50.5 -16t-35.5 0q38 11 121 51q24 13 141 80q6 4 17 3.5t14 -7.5q2 -6 -4 -12q4 -9 11 -29t11 -29q32 -76 60 -98z" />
    <glyph glyph-name="atilde" unicode="&#xe3;" horiz-adv-x="509" 
d="M606 352q7 7 9 4q0 -1 -1 -4q-6 -10 -14.5 -20t-21 -22.5t-17.5 -18.5q-59 -59 -88 -90l-30 -30l-33 -33t-29.5 -28.5t-35 -32.5t-31 -26.5t-35.5 -27.5q-8 -6 -18 -11.5t-21 -9t-18.5 2t-8.5 20.5q-2 34 29 102q15 30 39 74q-65 -65 -156.5 -134t-144.5 -69
q-33 0 -43.5 27.5t-4.5 62.5q7 51 45 121q71 122 175 192q138 91 239 72q55 -8 72 -49q7 -29 -4 -33q-3 -1 -6.5 0t-6 5t-4 6.5t-4 7.5t-2.5 6q-19 29 -52 38.5t-64 4t-64 -20.5q-80 -34 -162 -127q-63 -74 -114 -190q-44 -102 8 -98q62 5 150.5 74t146.5 139q54 62 59 69
q1 2 1.5 3.5t2 4t1 3t-0.5 1.5q18 22 39 35q4 2 9 3.5t10.5 2t9.5 -2.5t4 -9q-2 -13 -23 -45q-14 -23 -51.5 -79t-61.5 -98.5t-42 -84.5q-4 -8 -4 -16q13 0 47 24q19 14 57 47q59 52 113 107q15 16 45.5 47.5t46.5 46.5q31 31 47 45zM575 668q3 -1 -6 -12t-14 -17
q-61 -61 -133 -43q-10 2 -30 8.5t-36 10t-32 3.5q-29 0 -86 -34q-9 -7 -20 -9.5t-19 7.5q-1 3 4.5 9t12 10.5t15 10t9.5 6.5q58 39 125 21q11 -3 30 -9.5t30.5 -10t31 -6t32.5 2.5q26 6 54 27q3 2 11 9t14 12t7 4z" />
    <glyph glyph-name="adieresis" unicode="&#xe4;" horiz-adv-x="509" 
d="M606 352q7 7 9 4q0 -1 -1 -4q-6 -10 -14.5 -20t-21 -22.5t-17.5 -18.5q-59 -59 -88 -90l-30 -30l-33 -33t-29.5 -28.5t-35 -32.5t-31 -26.5t-35.5 -27.5q-8 -6 -18 -11.5t-21 -9t-18.5 2t-8.5 20.5q-2 34 29 102q15 30 39 74q-65 -65 -156.5 -134t-144.5 -69
q-33 0 -43.5 27.5t-4.5 62.5q7 51 45 121q71 122 175 192q138 91 239 72q55 -8 72 -49q7 -29 -4 -33q-3 -1 -6.5 0t-6 5t-4 6.5t-4 7.5t-2.5 6q-19 29 -52 38.5t-64 4t-64 -20.5q-80 -34 -162 -127q-63 -74 -114 -190q-44 -102 8 -98q62 5 150.5 74t146.5 139q54 62 59 69
q1 2 1.5 3.5t2 4t1 3t-0.5 1.5q18 22 39 35q4 2 9 3.5t10.5 2t9.5 -2.5t4 -9q-2 -13 -23 -45q-14 -23 -51.5 -79t-61.5 -98.5t-42 -84.5q-4 -8 -4 -16q13 0 47 24q19 14 57 47q59 52 113 107q15 16 45.5 47.5t46.5 46.5q31 31 47 45zM328 625q-7 -15 -21 -25t-26 -10t-16 11
t3 26q8 14 21.5 24.5t25.5 10.5t16 -11t-3 -26zM504 625q-7 -15 -21 -25t-26 -10t-16 11t3 26q8 14 22 24.5t26 10.5t15.5 -11t-3.5 -26z" />
    <glyph glyph-name="aring" unicode="&#xe5;" horiz-adv-x="509" 
d="M606 352q7 7 9 4q0 -1 -1 -4q-6 -10 -14.5 -20t-21 -22.5t-17.5 -18.5q-59 -59 -88 -90l-30 -30l-33 -33t-29.5 -28.5t-35 -32.5t-31 -26.5t-35.5 -27.5q-8 -6 -18 -11.5t-21 -9t-18.5 2t-8.5 20.5q-2 34 29 102q15 30 39 74q-65 -65 -156.5 -134t-144.5 -69
q-33 0 -43.5 27.5t-4.5 62.5q7 51 45 121q71 122 175 192q138 91 239 72q55 -8 72 -49q7 -29 -4 -33q-3 -1 -6.5 0t-6 5t-4 6.5t-4 7.5t-2.5 6q-19 29 -52 38.5t-64 4t-64 -20.5q-80 -34 -162 -127q-63 -74 -114 -190q-44 -102 8 -98q62 5 150.5 74t146.5 139q54 62 59 69
q1 2 1.5 3.5t2 4t1 3t-0.5 1.5q18 22 39 35q4 2 9 3.5t10.5 2t9.5 -2.5t4 -9q-2 -13 -23 -45q-14 -23 -51.5 -79t-61.5 -98.5t-42 -84.5q-4 -8 -4 -16q13 0 47 24q19 14 57 47q59 52 113 107q15 16 45.5 47.5t46.5 46.5q31 31 47 45zM420 721q31 9 54.5 -7t19.5 -48
q0 -11 -9 -29q-8 -16 -8 -4q0 5 1.5 16.5t1 19.5t-4.5 15q-7 19 -26 18.5t-35 -10t-27 -20.5q-13 -11 -25 -29t-17.5 -39t7.5 -35q13 -19 47 -2q36 15 52 45q9 12 22 15q9 3 10.5 -4t-2.5 -13q-12 -24 -45 -53q-50 -36 -88 -18q-27 12 -29 44.5t11 55.5q14 28 38 50.5
t52 31.5z" />
    <glyph glyph-name="ae" unicode="&#xe6;" horiz-adv-x="700" 
d="M813 356q0 -8 -22 -34q-87 -96 -115 -123q-111 -107 -209 -164q-37 -22 -72.5 -34.5t-75 -4t-57.5 50.5q-20 53 10 133q5 15 9 21q-65 -65 -156.5 -134t-144.5 -69q-33 0 -43.5 27.5t-4.5 62.5q7 51 45 121q71 122 175 192q138 91 239 72q55 -8 72 -49q0 -2 1 -6.5
t1 -7.5q48 37 100 57q53 20 82 8q42 -16 35 -63q-6 -42 -47 -80q-52 -46 -141 -85t-158 -40q-42 -82 -35 -137q8 -33 29 -41q40 -14 121 18q88 40 213 158q1 1 40.5 42t73.5 75.5t35 33.5zM362 319l3 3q31 33 81 73q-4 5 -10 21q-19 29 -52 38.5t-64 4t-64 -20.5
q-80 -34 -162 -127q-63 -74 -114 -190q-44 -102 8 -98q62 5 150.5 74t146.5 139q31 31 47 49q5 6 15 17t15 17zM553 446q-107 -58 -182 -178q-23 -36 -29 -49q28 0 61 10q146 45 220 133q7 9 14 20.5t13.5 26t6 28t-9.5 22.5q-27 25 -94 -13z" />
    <glyph glyph-name="ccedilla" unicode="&#xe7;" horiz-adv-x="401" 
d="M483 338q24 24 29 24q-15 -22 -23 -32q-80 -90 -147 -152q-53 -50 -123 -104q-80 -59 -131 -74l-37 -6q4 -31 -35 -80q-44 -63 -135 -139q-5 -5 -17.5 -13t-15.5 -8q-7 2 13 18l4 3q29 22 67 65q55 58 88 123q0 2 2 9.5t2 13t-4 8.5q-1 1 -4 2t-4 2q-20 6 -39 25
q-26 32 -22 90q7 106 119 225q111 115 213 137q68 15 100 -22q19 -28 17 -58t-19 -59q-16 -30 -42.5 -48.5t-57.5 -17.5q-8 0 -12.5 5t1.5 14q4 4 9.5 6t13 4.5l10.5 3.5q66 32 78 92q5 24 -5.5 43t-33.5 25q-33 10 -82 -10q-64 -28 -143 -115q-106 -114 -125 -227
q-8 -63 22 -84q15 -5 19 -7q1 -1 3 -2t3 -2h2q47 -7 117 33q78 44 204 166q44 41 84 84q6 6 18.5 19.5t18.5 19.5z" />
    <glyph glyph-name="egrave" unicode="&#xe8;" horiz-adv-x="395" 
d="M489 356q0 -8 -22 -34q-87 -96 -115 -123q-111 -107 -209 -164q-37 -22 -72 -34.5t-74.5 -4t-57.5 50.5q-24 63 24 164q37 79 121.5 153t157.5 103q53 20 82 8q41 -15 34 -63q-6 -42 -47 -80q-52 -46 -141 -85t-158 -40q-42 -82 -35 -137q8 -33 29 -41q40 -14 121 18
q88 40 213 158q1 1 40.5 42t73.5 75.5t35 33.5zM229 446q-107 -58 -182 -178q-22 -36 -29 -49q29 0 62 10q145 44 219 133q7 9 14 20.5t13.5 26t6.5 28t-9 22.5q-27 25 -95 -13zM375 555q2 -1 9.5 -2.5t13 -3t5.5 -2.5q0 -4 -26 0t-35 8q-36 10 -88.5 43t-75.5 72
q-8 13 1 25t18 -5q60 -94 178 -135z" />
    <glyph glyph-name="eacute" unicode="&#xe9;" horiz-adv-x="395" 
d="M489 356q0 -8 -22 -34q-87 -96 -115 -123q-111 -107 -209 -164q-37 -22 -72 -34.5t-74.5 -4t-57.5 50.5q-24 63 24 164q37 79 121.5 153t157.5 103q53 20 82 8q41 -15 34 -63q-6 -42 -47 -80q-52 -46 -141 -85t-158 -40q-42 -82 -35 -137q8 -33 29 -41q40 -14 121 18
q88 40 213 158q1 1 40.5 42t73.5 75.5t35 33.5zM229 446q-107 -58 -182 -178q-22 -36 -29 -49q29 0 62 10q145 44 219 133q7 9 14 20.5t13.5 26t6.5 28t-9 22.5q-27 25 -95 -13zM446 682q4 -3 1 -9t-5.5 -9t-8.5 -7.5t-7 -5.5q-99 -75 -240 -98q-28 -4 -34 2q63 11 131 41
q65 29 133 82q6 6 15 8t15 -4z" />
    <glyph glyph-name="ecircumflex" unicode="&#xea;" horiz-adv-x="395" 
d="M489 356q0 -8 -22 -34q-87 -96 -115 -123q-111 -107 -209 -164q-37 -22 -72 -34.5t-74.5 -4t-57.5 50.5q-24 63 24 164q37 79 121.5 153t157.5 103q53 20 82 8q41 -15 34 -63q-6 -42 -47 -80q-52 -46 -141 -85t-158 -40q-42 -82 -35 -137q8 -33 29 -41q40 -14 121 18
q88 40 213 158q1 1 40.5 42t73.5 75.5t35 33.5zM229 446q-107 -58 -182 -178q-22 -36 -29 -49q29 0 62 10q145 44 219 133q7 9 14 20.5t13.5 26t6.5 28t-9 22.5q-27 25 -95 -13zM446 518q1 -1 5.5 -3.5l9 -5t4.5 -3.5q0 -5 -8 -2q-23 10 -36 22.5t-28 36.5q-36 56 -53 96
q-84 -44 -92 -47q-5 -2 -35.5 -15.5t-50.5 -21.5t-50.5 -16t-35.5 0q38 11 121 51q23 13 141 80q6 4 17 3.5t14 -7.5q2 -6 -4 -12q4 -9 11 -29t11 -29q1 -2 4.5 -10t4.5 -11t4.5 -10.5t5 -11t5 -10t6 -10.5t6.5 -9.5t7 -9.5t7.5 -8.5t8.5 -7.5z" />
    <glyph glyph-name="edieresis" unicode="&#xeb;" horiz-adv-x="395" 
d="M489 356q0 -8 -22 -34q-87 -96 -115 -123q-111 -107 -209 -164q-37 -22 -72 -34.5t-74.5 -4t-57.5 50.5q-24 63 24 164q37 79 121.5 153t157.5 103q53 20 82 8q41 -15 34 -63q-6 -42 -47 -80q-52 -46 -141 -85t-158 -40q-42 -82 -35 -137q8 -33 29 -41q40 -14 121 18
q88 40 213 158q1 1 40.5 42t73.5 75.5t35 33.5zM229 446q-107 -58 -182 -178q-22 -36 -29 -49q29 0 62 10q145 44 219 133q7 9 14 20.5t13.5 26t6.5 28t-9 22.5q-27 25 -95 -13zM242 625q-7 -15 -21 -25t-26 -10t-16 11t3 26q8 14 21.5 24.5t25.5 10.5t16 -11t-3 -26z
M418 625q-7 -15 -21 -25t-26 -10t-16 11t3 26q8 14 22 24.5t26 10.5t15.5 -11t-3.5 -26z" />
    <glyph glyph-name="igrave" unicode="&#xec;" horiz-adv-x="260" 
d="M358 354q5 -5 -55 -65q-96 -100 -188 -176q-2 -2 -15 -12.5t-25 -21t-31.5 -25.5t-34.5 -24.5t-33 -19.5t-28.5 -10t-19.5 4q-24 19 2 80q25 50 56.5 105.5t72 124t60.5 104.5q23 38 51 53q21 7 25 0q1 -6 0.5 -9t-4 -9t-3.5 -7q-29 -54 -116 -197t-125 -224q13 0 29 7
t26 13.5t28 20t23 16.5q65 50 123 102l111 105q2 4 35 36t36 29zM346 555q2 -1 9.5 -2.5t13.5 -3t6 -2.5q0 -4 -26.5 0t-35.5 8q-35 10 -87.5 43t-75.5 72q-8 13 0.5 25t17.5 -5q60 -94 178 -135z" />
    <glyph glyph-name="iacute" unicode="&#xed;" horiz-adv-x="260" 
d="M358 354q5 -5 -55 -65q-96 -100 -188 -176q-2 -2 -15 -12.5t-25 -21t-31.5 -25.5t-34.5 -24.5t-33 -19.5t-28.5 -10t-19.5 4q-24 19 2 80q25 50 56.5 105.5t72 124t60.5 104.5q23 38 51 53q21 7 25 0q1 -6 0.5 -9t-4 -9t-3.5 -7q-29 -54 -116 -197t-125 -224q13 0 29 7
t26 13.5t28 20t23 16.5q65 50 123 102l111 105q2 4 35 36t36 29zM377 682q4 -3 1 -9t-6 -9t-9 -7.5t-7 -5.5q-99 -75 -239 -98q-29 -4 -35 2q63 11 131 41q65 29 133 82q6 6 15.5 8t15.5 -4z" />
    <glyph glyph-name="icircumflex" unicode="&#xee;" horiz-adv-x="260" 
d="M358 354q5 -5 -55 -65q-96 -100 -188 -176q-2 -2 -15 -12.5t-25 -21t-31.5 -25.5t-34.5 -24.5t-33 -19.5t-28.5 -10t-19.5 4q-24 19 2 80q25 50 56.5 105.5t72 124t60.5 104.5q23 38 51 53q21 7 25 0q1 -6 0.5 -9t-4 -9t-3.5 -7q-29 -54 -116 -197t-125 -224q13 0 29 7
t26 13.5t28 20t23 16.5q65 50 123 102l111 105q2 4 35 36t36 29zM379 518q1 -1 5.5 -3.5t8.5 -5t4 -3.5q0 -5 -8 -2q-23 10 -35.5 22.5t-27.5 36.5q-39 60 -54 96q-85 -44 -92 -47q-5 -2 -35.5 -15.5t-50.5 -21.5t-50.5 -16t-35.5 0q38 11 121 51q23 13 141 80q6 4 17 3.5
t14 -7.5q2 -6 -4 -12q4 -9 11 -29t11 -29q32 -76 60 -98z" />
    <glyph glyph-name="idieresis" unicode="&#xef;" horiz-adv-x="260" 
d="M358 354q5 -5 -55 -65q-96 -100 -188 -176q-2 -2 -15 -12.5t-25 -21t-31.5 -25.5t-34.5 -24.5t-33 -19.5t-28.5 -10t-19.5 4q-24 19 2 80q25 50 56.5 105.5t72 124t60.5 104.5q23 38 51 53q21 7 25 0q1 -6 0.5 -9t-4 -9t-3.5 -7q-29 -54 -116 -197t-125 -224q13 0 29 7
t26 13.5t28 20t23 16.5q65 50 123 102l111 105q2 4 35 36t36 29zM182 625q-7 -15 -21 -25t-26 -10t-15.5 11t3.5 26q8 14 21.5 24.5t25.5 10.5t15.5 -11t-3.5 -26zM358 625q-7 -15 -21 -25t-26 -10t-15.5 11t3.5 26q8 14 21.5 24.5t25.5 10.5t15.5 -11t-3.5 -26z" />
    <glyph glyph-name="eth" unicode="&#xf0;" horiz-adv-x="471" 
d="M584 354q-25 -30 -27 -32q-60 -69 -137 -127q-81 -57 -139 -64q-78 -74 -168 -119q-78 -36 -119 -16q-45 22 -41 100q5 111 104 228q77 87 162 133q58 30 103 35q45 0 57 -7q-1 1 -2 4.5t-2 4.5q-8 13 -25 35t-22 30q-14 -8 -37 -16q-16 -6 -58 -19q-2 0 -11.5 -2
t-16.5 -4q-4 -2 -17 -2q-4 4 4.5 7t12.5 3q24 8 26 9q23 3 58 18q6 3 17.5 8.5t15.5 7.5q-64 78 -111 121q-9 10 -12 17q-1 1 -2.5 4t-2 5.5t0.5 2.5q5 5 16 -6q2 -2 6.5 -6t7.5 -7q44 -44 64 -69q26 -33 41 -56q15 8 59 43v3q17 17 25 8q1 -5 -19 -25q-20 -17 -55 -41
q24 -35 55 -86q6 -8 14 -21.5t11 -17.5q10 -10 16 -32v-7q6 -46 -33 -118q-37 -60 -106 -136q67 21 129 70q60 45 129 117q24 24 29 22zM285 391q26 24 61 43t60 12q-14 19 -19 27v-2q0 -4 -8 4q-22 10 -57 2q-51 -12 -95 -39q-88 -56 -176 -198q-37 -69 -53 -117
q-27 -90 10 -109q36 -18 113 19q52 28 100 76l23 22q-15 1 -28.5 10.5t-18.5 20.5q-19 40 12 123q21 55 76 106zM207 170q13 -25 45 -29q78 84 129 189q8 15 14 32t9 37.5t-9 24.5q-32 15 -98 -41q-51 -44 -74 -98q-36 -74 -16 -115z" />
    <glyph glyph-name="ntilde" unicode="&#xf1;" horiz-adv-x="483" 
d="M-35 190q74 132 137 228q10 17 37 29q27 11 27 -9q0 -11 -16 -32q-16 -23 -65.5 -101.5t-94.5 -146.5q6 6 17.5 18.5t17.5 18.5q94 109 202 194q58 47 107 70q59 26 82 20q11 -3 18 -12q9 -11 10 -25.5t-5.5 -32t-11 -27t-13.5 -26.5q-25 -46 -81 -123.5t-75 -107.5
q-5 -9 -20 -31.5t-24.5 -40.5t-10.5 -30q-3 -16 30 4q46 29 127 106q30 28 172 176q50 50 62 53q-9 -21 -59 -71q-83 -89 -173 -176q-82 -82 -121 -103q-45 -26 -57 4q-12 34 27 115q20 39 70 117q13 20 41 60t40 59q39 61 41 82q-2 8 -17 7t-32 -7q-72 -29 -170 -115
q-76 -64 -270 -287q-7 -8 -14 -16.5t-11 -13.5t-8 -9.5t-5.5 -6.5t-2.5 -1q-7 3 31 80q10 21 32.5 60t28.5 50zM526 608q3 -1 -5.5 -11.5t-14.5 -16.5q-61 -61 -133 -43q-10 2 -30.5 8.5t-36.5 10t-32 3.5q-28 0 -86 -35q-5 -4 -12 -7t-15 -2.5t-11 7.5q-1 3 2 7t9 8.5
t11 8.5t11 8t7 5q58 39 125 21q11 -3 30.5 -9.5t30.5 -10t31 -6t33 2.5q26 6 54 27q2 2 10.5 9t14.5 11.5t7 3.5z" />
    <glyph glyph-name="ograve" unicode="&#xf2;" horiz-adv-x="471" 
d="M584 354q-25 -30 -27 -32q-60 -69 -137 -127q-81 -57 -139 -64q-78 -74 -168 -119q-78 -36 -119 -16q-45 22 -41 100q5 111 104 228q77 87 162 133q58 30 103 35q65 8 65 -21q0 -4 -8 4q-22 10 -57 2q-51 -12 -95 -39q-88 -56 -176 -198q-37 -69 -53 -117
q-27 -90 10 -109q36 -18 113 19q52 28 100 76q3 3 11 10.5t12 11.5q-15 1 -28.5 10.5t-18.5 20.5q-19 40 12 123q21 55 76 106q17 16 37.5 29.5t45 24t43.5 1.5t25 -40q4 -23 -5.5 -59t-27.5 -66q-37 -60 -106 -136q67 21 129 70q60 45 129 117q24 24 29 22zM207 170
q13 -25 45 -29q78 84 129 189q8 15 14 32t9 37.5t-9 24.5q-32 15 -98 -41q-51 -44 -74 -98q-36 -74 -16 -115zM455 549q2 -1 9.5 -2.5t13 -3t5.5 -2.5q0 -4 -26 0t-35 8q-36 10 -88.5 43t-75.5 72q-8 13 0.5 25t17.5 -5q29 -45 76.5 -80.5t102.5 -54.5z" />
    <glyph glyph-name="oacute" unicode="&#xf3;" horiz-adv-x="471" 
d="M584 354q-25 -30 -27 -32q-60 -69 -137 -127q-81 -57 -139 -64q-78 -74 -168 -119q-78 -36 -119 -16q-45 22 -41 100q5 111 104 228q77 87 162 133q58 30 103 35q65 8 65 -21q0 -4 -8 4q-22 10 -57 2q-51 -12 -95 -39q-88 -56 -176 -198q-37 -69 -53 -117
q-27 -90 10 -109q36 -18 113 19q52 28 100 76q3 3 11 10.5t12 11.5q-15 1 -28.5 10.5t-18.5 20.5q-19 40 12 123q21 55 76 106q17 16 37.5 29.5t45 24t43.5 1.5t25 -40q4 -23 -5.5 -59t-27.5 -66q-37 -60 -106 -136q67 21 129 70q60 45 129 117q24 24 29 22zM207 170
q13 -25 45 -29q78 84 129 189q8 15 14 32t9 37.5t-9 24.5q-32 15 -98 -41q-51 -44 -74 -98q-36 -74 -16 -115zM500 674q4 -3 1 -9t-6 -9t-9 -7.5t-7 -5.5q-99 -75 -239 -98q-29 -4 -35 2q63 11 131 41q65 29 133 82q6 6 15.5 8t15.5 -4z" />
    <glyph glyph-name="ocircumflex" unicode="&#xf4;" horiz-adv-x="471" 
d="M584 354q-25 -30 -27 -32q-60 -69 -137 -127q-81 -57 -139 -64q-78 -74 -168 -119q-78 -36 -119 -16q-45 22 -41 100q5 111 104 228q77 87 162 133q58 30 103 35q65 8 65 -21q0 -4 -8 4q-22 10 -57 2q-51 -12 -95 -39q-88 -56 -176 -198q-37 -69 -53 -117
q-27 -90 10 -109q36 -18 113 19q52 28 100 76q3 3 11 10.5t12 11.5q-15 1 -28.5 10.5t-18.5 20.5q-19 40 12 123q21 55 76 106q17 16 37.5 29.5t45 24t43.5 1.5t25 -40q4 -23 -5.5 -59t-27.5 -66q-37 -60 -106 -136q67 21 129 70q60 45 129 117q24 24 29 22zM207 170
q13 -25 45 -29q78 84 129 189q8 15 14 32t9 37.5t-9 24.5q-32 15 -98 -41q-51 -44 -74 -98q-36 -74 -16 -115zM526 512q1 -1 5.5 -3.5l9 -5t4.5 -3.5q0 -5 -8 -2q-23 10 -36 22.5t-28 36.5q-36 56 -53 96q-85 -44 -92 -47q-5 -2 -35.5 -15.5t-50.5 -21.5t-50.5 -16t-35.5 0
q36 10 120 51q37 20 142 80q6 4 17 3.5t14 -7.5q2 -5 -5 -12q4 -9 11.5 -29t11.5 -29q1 -2 4.5 -10t4.5 -11t4.5 -10.5t5 -11t5 -10t6 -10.5t6.5 -9.5t7 -9.5t7.5 -8.5t8.5 -7.5z" />
    <glyph glyph-name="otilde" unicode="&#xf5;" horiz-adv-x="471" 
d="M584 354q-25 -30 -27 -32q-60 -69 -137 -127q-81 -57 -139 -64q-78 -74 -168 -119q-78 -36 -119 -16q-45 22 -41 100q5 111 104 228q77 87 162 133q58 30 103 35q65 8 65 -21q0 -4 -8 4q-22 10 -57 2q-51 -12 -95 -39q-88 -56 -176 -198q-37 -69 -53 -117
q-27 -90 10 -109q36 -18 113 19q52 28 100 76q3 3 11 10.5t12 11.5q-15 1 -28.5 10.5t-18.5 20.5q-19 40 12 123q21 55 76 106q17 16 37.5 29.5t45 24t43.5 1.5t25 -40q4 -23 -5.5 -59t-27.5 -66q-37 -60 -106 -136q67 21 129 70q60 45 129 117q24 24 29 22zM207 170
q13 -25 45 -29q78 84 129 189q8 15 14 32t9 37.5t-9 24.5q-32 15 -98 -41q-51 -44 -74 -98q-36 -74 -16 -115zM545 635q3 -1 -6 -12t-15 -17q-61 -61 -133 -43q-11 3 -30.5 9.5t-35.5 10t-32 3.5q-28 0 -86 -35q-9 -7 -20 -9.5t-19 7.5q-1 3 2.5 7t9 8.5t11 8.5t11.5 8t7 5
q57 38 125 20q11 -3 30.5 -9.5t30.5 -10t31 -6t33 3.5q26 6 53 26q2 2 11 9t15 12t7 4z" />
    <glyph glyph-name="odieresis" unicode="&#xf6;" horiz-adv-x="471" 
d="M584 354q-25 -30 -27 -32q-60 -69 -137 -127q-81 -57 -139 -64q-78 -74 -168 -119q-78 -36 -119 -16q-45 22 -41 100q5 111 104 228q77 87 162 133q58 30 103 35q65 8 65 -21q0 -4 -8 4q-22 10 -57 2q-51 -12 -95 -39q-88 -56 -176 -198q-37 -69 -53 -117
q-27 -90 10 -109q36 -18 113 19q52 28 100 76q3 3 11 10.5t12 11.5q-15 1 -28.5 10.5t-18.5 20.5q-19 40 12 123q21 55 76 106q17 16 37.5 29.5t45 24t43.5 1.5t25 -40q4 -23 -5.5 -59t-27.5 -66q-37 -60 -106 -136q67 21 129 70q60 45 129 117q24 24 29 22zM207 170
q13 -25 45 -29q78 84 129 189q8 15 14 32t9 37.5t-9 24.5q-32 15 -98 -41q-51 -44 -74 -98q-36 -74 -16 -115zM307 625q-7 -15 -21 -25t-26 -10t-15.5 11t3.5 26q8 14 21.5 24.5t25.5 10.5t15.5 -11t-3.5 -26zM483 625q-7 -15 -21 -25t-26 -10t-15.5 11t3.5 26
q8 14 21.5 24.5t25.5 10.5t15.5 -11t-3.5 -26z" />
    <glyph glyph-name="divide" unicode="&#xf7;" horiz-adv-x="968" 
d="M293 43q-7 -15 -21 -25t-26 -10t-16 11t3 26q8 14 22 24.5t26 10.5t15.5 -11t-3.5 -26zM432 393q-7 -15 -21 -25t-26 -10t-15.5 11t3.5 26q8 14 21.5 24.5t25.5 10.5t15.5 -11t-3.5 -26zM510 252q31 0 100 -14q23 -4 21 -7q-6 -4 -23 -4q-275 17 -506 -32q-31 -8 -47 6
q-5 3 -3.5 8t7.5 8q114 31 328 39q82 0 123 -4z" />
    <glyph glyph-name="oslash" unicode="&#xf8;" horiz-adv-x="471" 
d="M418 516q11 0 11 -1.5t-3 -4.5q-2 -2 -18.5 -17t-22.5 -22q-5 -5 -15.5 -16.5t-15.5 -16.5q69 30 82 -32q4 -23 -5.5 -59t-27.5 -66q-37 -60 -106 -136q67 21 129 70q60 45 129 117q24 24 29 22q-25 -30 -27 -32q-60 -69 -137 -127q-81 -57 -139 -64q-78 -74 -168 -119
q-76 -35 -117 -16q-6 -6 -8 -10q-13 -23 -31 -41q-4 -5 -4 -1.5t2 5.5q2 6 6 14q18 31 23 39q-35 26 -31 94q5 111 104 228q77 87 162 133q58 30 103 35q45 0 55 -5q30 25 41 29zM248 352q49 56 121 127q-12 3 -47 -2q-51 -12 -95 -39q-88 -56 -176 -198q-37 -69 -53 -117
q-21 -76 0 -100q6 12 22 36q102 148 228 293zM207 170q13 -25 45 -29q78 84 129 189q8 15 14 32t9 37.5t-9 24.5q-23 11 -80 -27q-14 -15 -28 -31t-31 -36t-27 -31q-1 -2 -3 -7t-3 -7q-36 -74 -16 -115zM197 162q-18 35 6 104q-6 -8 -28 -33.5t-32 -39.5q-53 -67 -135 -179
q36 -18 113 19q52 28 100 76l23 22q-15 1 -28.5 10.5t-18.5 20.5z" />
    <glyph glyph-name="ugrave" unicode="&#xf9;" horiz-adv-x="524" 
d="M631 358q3 -2 -13 -18q-42 -51 -153 -162q-47 -46 -96 -90q-64 -60 -99 -78q-33 -19 -47 0q-13 13 -4 49q6 25 18 56t20.5 48.5t29.5 57.5t26 49q-89 -116 -172 -182q-54 -47 -106 -74q-51 -27 -80 -12q-28 15 -18 78q9 46 47 121q61 122 151 215q26 29 58 43q18 7 29 1
q5 -6 -1 -14q-10 -12 -44.5 -48t-49.5 -58q-92 -117 -139 -227q-31 -85 -17 -95q28 -12 111 41q91 59 190 174q29 35 80 111q3 3 15.5 22.5t26 41.5t16.5 26q20 27 47 39q16 5 25.5 -3t0.5 -21q-4 -7 -18.5 -26t-22.5 -32q-104 -159 -155 -252q-3 -6 -16.5 -32t-19.5 -43.5
t-7 -36.5q8 -8 48 19t62 46q20 17 111 103q2 2 21.5 22t41.5 42.5t46 46t40 38.5t17 14zM455 549q2 -1 9.5 -2.5t13 -3t5.5 -2.5q0 -4 -26 0t-35 8q-36 10 -88.5 43t-75.5 72q-8 13 0.5 25t17.5 -5q29 -45 76.5 -80.5t102.5 -54.5z" />
    <glyph glyph-name="uacute" unicode="&#xfa;" horiz-adv-x="524" 
d="M631 358q3 -2 -13 -18q-42 -51 -153 -162q-47 -46 -96 -90q-64 -60 -99 -78q-33 -19 -47 0q-13 13 -4 49q6 25 18 56t20.5 48.5t29.5 57.5t26 49q-89 -116 -172 -182q-54 -47 -106 -74q-51 -27 -80 -12q-28 15 -18 78q9 46 47 121q61 122 151 215q26 29 58 43q18 7 29 1
q5 -6 -1 -14q-10 -12 -44.5 -48t-49.5 -58q-92 -117 -139 -227q-31 -85 -17 -95q28 -12 111 41q91 59 190 174q29 35 80 111q3 3 15.5 22.5t26 41.5t16.5 26q20 27 47 39q16 5 25.5 -3t0.5 -21q-4 -7 -18.5 -26t-22.5 -32q-104 -159 -155 -252q-3 -6 -16.5 -32t-19.5 -43.5
t-7 -36.5q8 -8 48 19t62 46q20 17 111 103q2 2 21.5 22t41.5 42.5t46 46t40 38.5t17 14zM500 674q4 -3 1 -9t-6 -9t-9 -7.5t-7 -5.5q-99 -75 -239 -98q-29 -4 -35 2q63 11 131 41q65 29 133 82q6 6 15.5 8t15.5 -4z" />
    <glyph glyph-name="ucircumflex" unicode="&#xfb;" horiz-adv-x="524" 
d="M631 358q3 -2 -13 -18q-42 -51 -153 -162q-47 -46 -96 -90q-64 -60 -99 -78q-33 -19 -47 0q-13 13 -4 49q6 25 18 56t20.5 48.5t29.5 57.5t26 49q-89 -116 -172 -182q-54 -47 -106 -74q-51 -27 -80 -12q-28 15 -18 78q9 46 47 121q61 122 151 215q26 29 58 43q18 7 29 1
q5 -6 -1 -14q-10 -12 -44.5 -48t-49.5 -58q-92 -117 -139 -227q-31 -85 -17 -95q28 -12 111 41q91 59 190 174q29 35 80 111q3 3 15.5 22.5t26 41.5t16.5 26q20 27 47 39q16 5 25.5 -3t0.5 -21q-4 -7 -18.5 -26t-22.5 -32q-104 -159 -155 -252q-3 -6 -16.5 -32t-19.5 -43.5
t-7 -36.5q8 -8 48 19t62 46q20 17 111 103q2 2 21.5 22t41.5 42.5t46 46t40 38.5t17 14zM526 512q1 -1 5.5 -3.5l9 -5t4.5 -3.5q0 -5 -8 -2q-23 10 -36 22.5t-28 36.5q-36 56 -53 96q-85 -44 -92 -47q-5 -2 -35.5 -15.5t-50.5 -21.5t-50.5 -16t-35.5 0q36 10 120 51
q37 20 142 80q6 4 17 3.5t14 -7.5q2 -5 -5 -12q4 -9 11.5 -29t11.5 -29q1 -2 4.5 -10t4.5 -11t4.5 -10.5t5 -11t5 -10t6 -10.5t6.5 -9.5t7 -9.5t7.5 -8.5t8.5 -7.5z" />
    <glyph glyph-name="udieresis" unicode="&#xfc;" horiz-adv-x="524" 
d="M631 358q3 -2 -13 -18q-42 -51 -153 -162q-47 -46 -96 -90q-64 -60 -99 -78q-33 -19 -47 0q-13 13 -4 49q6 25 18 56t20.5 48.5t29.5 57.5t26 49q-89 -116 -172 -182q-54 -47 -106 -74q-51 -27 -80 -12q-28 15 -18 78q9 46 47 121q61 122 151 215q26 29 58 43q18 7 29 1
q5 -6 -1 -14q-10 -12 -44.5 -48t-49.5 -58q-92 -117 -139 -227q-31 -85 -17 -95q28 -12 111 41q91 59 190 174q29 35 80 111q3 3 15.5 22.5t26 41.5t16.5 26q20 27 47 39q16 5 25.5 -3t0.5 -21q-4 -7 -18.5 -26t-22.5 -32q-104 -159 -155 -252q-3 -6 -16.5 -32t-19.5 -43.5
t-7 -36.5q8 -8 48 19t62 46q20 17 111 103q2 2 21.5 22t41.5 42.5t46 46t40 38.5t17 14zM307 625q-7 -15 -21 -25t-26 -10t-15.5 11t3.5 26q8 14 21.5 24.5t25.5 10.5t15.5 -11t-3.5 -26zM483 625q-7 -15 -21 -25t-26 -10t-15.5 11t3.5 26q8 14 21.5 24.5t25.5 10.5
t15.5 -11t-3.5 -26z" />
    <glyph glyph-name="yacute" unicode="&#xfd;" horiz-adv-x="536" 
d="M643 352q3 2 4 1q1 -4 -8 -13q-49 -46 -162 -139q-178 -146 -221 -181q-63 -118 -88.5 -164t-78.5 -135.5t-99 -156.5q-82 -123 -170 -205q-64 -60 -107 -64q-32 -3 -41 22.5t-2 57.5q20 90 129 226q66 84 185 194q73 73 186 168q65 125 147 266q-43 -48 -116 -110
q-86 -73 -168 -109q-37 -14 -53 -12q-26 3 -33.5 27t-1.5 51q38 159 194 340q33 33 64 43q25 6 28 0q6 -7 -10 -23q-168 -168 -235 -342q-17 -38 -17 -59q2 -24 39 -15q47 11 115 60q101 66 196 172q43 48 46 53q8 11 33 47t40 54q18 20 41 40q22 17 33 23q18 7 10 -8
q-5 -11 -13.5 -23t-19.5 -27t-16 -22q-87 -128 -201 -340q21 18 59.5 49.5l49.5 40.5q36 29 113 94.5t120 98.5q13 10 29 20zM90 -186q8 16 30.5 56.5t33.5 63.5q-167 -146 -271 -262q-110 -128 -155 -215q-1 -3 -6.5 -13t-7 -14t-6.5 -15.5t-6.5 -16t-5.5 -16t-4 -16
t-2 -15.5t1 -15q3 -15 15 -16t29.5 10.5t27 18.5t20.5 16q76 66 166 207q51 78 141 242zM500 674q4 -3 1 -9t-6 -9t-9 -7.5t-7 -5.5q-99 -75 -239 -98q-29 -4 -35 2q63 11 131 41q65 29 133 82q6 6 15.5 8t15.5 -4z" />
    <glyph glyph-name="thorn" unicode="&#xfe;" horiz-adv-x="536" 
d="M922 270q88 -13 86 -22q-4 -2 -16 -0.5t-29 4t-19 2.5q-49 6 -98 6q-51 -85 -133 -158q-48 -42 -119 -77.5t-115 -22.5q-20 6 -22 25.5t5.5 37.5t18.5 33q37 52 90 90q101 70 228 82q42 74 45 109q3 25 -6 43q-22 38 -95 18q-57 -18 -112 -67q-24 -20 -49.5 -45
t-42.5 -43t-45 -52t-39 -47t-44 -55t-40 -51q-148 -280 -379 -694q-21 -44 -47 -70q-19 -18 -25 -12q-5 7 2 20q9 22 20.5 44.5t30 56t23.5 43.5q264 497 450 831q286 547 414 766q22 37 47 59q19 15 30 12q5 -3 1 -14q-2 -5 -37 -63q-58 -100 -207 -379q-59 -115 -295 -545
q104 134 181 211q53 53 102 86.5t104 38.5q32 3 60 -9t39 -40q19 -61 -31 -148q22 0 68 -4zM750 199q30 38 41 57q-64 -6 -125 -31q-93 -41 -150 -106q-49 -55 -43 -86q6 -29 82 -4q95 37 195 170z" />
    <glyph glyph-name="ydieresis" unicode="&#xff;" horiz-adv-x="536" 
d="M643 352q3 2 4 1q1 -4 -8 -13q-49 -46 -162 -139q-178 -146 -221 -181q-63 -118 -88.5 -164t-78.5 -135.5t-99 -156.5q-82 -123 -170 -205q-64 -60 -107 -64q-32 -3 -41 22.5t-2 57.5q20 90 129 226q66 84 185 194q73 73 186 168q65 125 147 266q-43 -48 -116 -110
q-86 -73 -168 -109q-37 -14 -53 -12q-26 3 -33.5 27t-1.5 51q38 159 194 340q33 33 64 43q25 6 28 0q6 -7 -10 -23q-168 -168 -235 -342q-17 -38 -17 -59q2 -24 39 -15q47 11 115 60q101 66 196 172q43 48 46 53q8 11 33 47t40 54q18 20 41 40q22 17 33 23q18 7 10 -8
q-5 -11 -13.5 -23t-19.5 -27t-16 -22q-87 -128 -201 -340q21 18 59.5 49.5l49.5 40.5q36 29 113 94.5t120 98.5q13 10 29 20zM90 -186q8 16 30.5 56.5t33.5 63.5q-167 -146 -271 -262q-110 -128 -155 -215q-1 -3 -6.5 -13t-7 -14t-6.5 -15.5t-6.5 -16t-5.5 -16t-4 -16
t-2 -15.5t1 -15q3 -15 15 -16t29.5 10.5t27 18.5t20.5 16q76 66 166 207q51 78 141 242zM307 625q-7 -15 -21 -25t-26 -10t-15.5 11t3.5 26q8 14 21.5 24.5t25.5 10.5t15.5 -11t-3.5 -26zM483 625q-7 -15 -21 -25t-26 -10t-15.5 11t3.5 26q8 14 21.5 24.5t25.5 10.5
t15.5 -11t-3.5 -26z" />
    <glyph glyph-name="Lslash" unicode="&#x141;" horiz-adv-x="978" 
d="M690 532q28 5 102 1q22 -1 21 -3q-8 -8 -22 -8q-132 -13 -250 -35l-80 -116q-146 -205 -279 -353q152 41 267 56q131 19 249 2q113 -16 150 -84q5 -9 10 -24t0 -15q-1 0 -3.5 5t-6.5 12t-6 10q-31 40 -90 53q-63 16 -170 16q-188 -3 -426 -59q-24 -28 -35 -39
q-91 -91 -199 -135q-36 -16 -59 -11q-13 3 -18.5 14t-0.5 25q18 40 88 78q95 52 211 84q69 78 138 172q77 106 202 295q-122 -32 -188 -57q-29 -12 -47 -2q-12 8 2 18q95 41 254 74q14 23 42 68t42 67q58 91 117.5 196t130.5 236.5t110 200.5q24 40 39 55t15 -6q0 -9 -3 -16
q-21 -59 -53 -128.5t-52.5 -109t-68.5 -127t-61 -111.5q-98 -165 -201 -315q1 0 3 1t3 1q82 12 123 14zM-33 -78q-69 -30 -102 -76q-10 -21 -2 -24q33 -5 84 22q80 41 172 133q-80 -21 -152 -55z" />
    <glyph glyph-name="lslash" unicode="&#x142;" horiz-adv-x="227" 
d="M305 549q5 1 31.5 2t51 1t22.5 -3q-9 -6 -21 -6q-113 -14 -188 -31l-49 -90q-26 -50 -197 -359q-4 -7 -8.5 -19.5t-3.5 -12.5q4 0 11.5 3.5t15.5 7.5l7 5q13 9 27 19.5t25 19t26.5 22t23.5 20t26 23t23 21.5t25 23.5t23 21.5q4 3 43 41t75 72t38 32q4 -4 -96 -104
q-100 -103 -211 -197q-54 -42 -74 -51q-28 -9 -35 8q-7 22 10 56q58 123 221 426q-35 -9 -167 -54q-24 -12 -41 -4q-7 8 2 17q93 40 221 67q1 2 4 7.5t4 7.5q37 70 295 538q35 60 63 78q23 14 2 -38l-2 -4q-2 -4 -2 -5l-311 -573q5 1 39 6t51 6z" />
    <glyph glyph-name="OE" unicode="&#x152;" horiz-adv-x="1574" 
d="M1831 1300q37 -32 37 -88q1 -66 -43 -125.5t-107 -78.5q-38 -8 -55 -2q-14 8 -8.5 12.5t20.5 9.5q66 19 109 62q27 27 44.5 63t15.5 76.5t-36 64.5q-8 6 -26 15l-49 -25q-141 -71 -320 -127q-18 -21 -29 -41q-65 -105 -65 -207q0 -67 39 -118q76 11 131 8q73 -4 102 -29
q13 -9 15.5 -23t-7.5 -26q-30 -30 -98 -21q-97 10 -158 68q-117 -26 -227 -100q-83 -58 -147 -131q-31 -49 -80 -111q-37 -65 -53 -107q-59 -139 -31 -256q15 -60 62.5 -98t107.5 -37q102 -2 235 64q100 50 205 135q112 87 215 190l21 15q0 -8 -21 -29q-94 -105 -205 -190
q-98 -76 -198 -129q-51 -27 -101.5 -45t-109.5 -28t-113.5 6t-93.5 60q-40 44 -53 113.5t0 128.5q6 40 18 76q-37 -40 -69 -68q-111 -99 -211 -161q-146 -89 -248 -91q-53 -2 -99.5 23t-72.5 70q-30 61 -33 133q-8 155 80 350q98 219 266 399q83 90 164 146q74 51 131 63
q34 0 16 -12q-105 -62 -176 -125q-79 -68 -160 -162q-176 -212 -251 -424q-42 -106 -45 -211q-4 -118 55 -180q37 -39 97 -45t110 14q96 34 223 133q189 153 358 390q192 271 209 485q3 30 0 65q-173 -27 -270 -12q-79 13 -84 66q-2 50 65 94q59 39 115 47q73 11 119 -22
q68 -53 82 -150q13 2 36 7t33 7q92 23 152 39q43 55 98 92q123 84 248 84q38 0 72 -12q7 3 39 19q3 1 14.5 7t17.5 7q6 -1 -12 -14q-25 -14 -41 -25q20 -12 29 -21zM1133 893q-29 -120 -95 -240q55 39 111 68q78 40 180 63q-23 29 -37 62q-26 78 -10.5 151t64.5 142
q-61 -18 -97 -25q-63 -15 -100 -22q10 -82 -16 -199zM948 1083q65 2 168 21q-11 105 -80 147q-58 25 -123 6t-112 -67q-29 -29 -21 -57q8 -24 40 -35.5t56.5 -13t71.5 -1.5zM1683 1280q14 6 40.5 19t37.5 18q-83 24 -194 -31q-72 -37 -129 -100q114 37 245 94zM1493 784
q-72 0 -121 -10q50 -50 133 -57q43 -4 64 2q37 16 18 37q-9 11 -28.5 17.5t-29.5 7.5t-36 3z" />
    <glyph glyph-name="oe" unicode="&#x153;" horiz-adv-x="733" 
d="M844 356q0 -6 -23 -34q-93 -103 -114 -123q-111 -107 -209 -164q-37 -22 -72.5 -34.5t-75 -4t-57.5 50.5q-14 37 -4 84h-8q-78 -74 -168 -119q-78 -36 -119 -16q-45 22 -41 100q5 111 104 228q77 87 162 133q58 30 103 35q65 8 65 -21q0 -4 -8 4q-22 10 -57 2
q-51 -12 -95 -39q-88 -56 -176 -198q-37 -69 -53 -117q-27 -90 10 -109q36 -18 113 19q52 28 100 76l23 22q-15 1 -28.5 10.5t-18.5 20.5q-19 40 12 123q21 55 76 106q17 16 37.5 29.5t45 24t43.5 1.5t25 -40q2 -13 -2 -46q83 77 162 107q53 20 82 8q42 -16 35 -63
q-6 -42 -47 -80q-52 -46 -141 -85t-158 -40q-42 -82 -35 -137q8 -34 28 -41q40 -14 121 18q88 40 213 158l40 41q41 42 75 76.5t35 33.5zM584 446q-108 -58 -183 -178q-17 -28 -28 -49q28 0 61 10q145 44 219 133q7 9 14 20.5t13.5 26t6.5 28t-9 22.5q-27 25 -94 -13z
M207 170q13 -25 45 -29q78 84 129 189q8 15 14 32t9 37.5t-9 24.5q-32 15 -98 -41q-51 -44 -74 -98q-36 -74 -16 -115z" />
    <glyph glyph-name="Scaron" unicode="&#x160;" horiz-adv-x="1007" 
d="M1049 463l27.5 -11t45 -20t21.5 -14q-1 -1 -22 6.5t-45 17t-25 9.5q-48 16 -107 26q6 -81 -35 -164q-50 -102 -164 -194q-112 -90 -223 -139q-127 -57 -260 -72q-166 -18 -227 43q-25 25 -27.5 59t9.5 63.5t34 59.5q58 80 152 148q220 170 487 211q116 17 209 6
q-6 33 -22 64.5t-32 53t-47.5 50t-48 41t-56 41t-50.5 36.5q-137 99 -137 207q3 98 98 201q88 91 211 137q163 59 256 -2q50 -34 64 -96.5t-7 -116.5q-19 -59 -60.5 -106.5t-98.5 -75.5q-65 -31 -115 -21q-19 6 -12 15q3 4 20 10q8 3 25.5 7t25.5 7q137 43 187 152
q27 48 19.5 109.5t-52.5 93.5q-88 64 -246 -2q-128 -53 -207 -154q-95 -126 -53 -213q10 -19 25 -38t28 -32t34.5 -30.5t33.5 -26t38.5 -27t35.5 -24.5q174 -127 188 -266q41 -7 105 -29zM780 190q131 149 121 291q-180 18 -362 -43q-133 -46 -240 -112q-132 -84 -203 -166
q-123 -145 -35 -205q46 -31 125 -31q70 0 138 15q273 59 456 251zM969 1538q-6 9 -17 18t-18.5 14.5t-7.5 6.5q0 8 16.5 -1t20.5 -13q10 -9 36 -43q31 -46 52 -97q77 40 94 47q79 37 137 54q26 9 33 2q-15 -4 -25 -8q-26 -11 -96 -45q-24 -12 -70 -38.5t-69 -39.5
q-6 -5 -18 -4.5t-15 8.5q0 6 4 10q-4 9 -11 28.5t-11 28.5q-20 51 -35 72z" />
    <glyph glyph-name="scaron" unicode="&#x161;" horiz-adv-x="309" 
d="M244 274q6 0 27 -1.5t42.5 -5t20.5 -7.5q0 -1 -21 0t-44 2.5t-25 1.5q-31 0 -45 -2q16 -45 4 -90q-14 -58 -62.5 -102t-111.5 -64q-83 -24 -117 2q-39 27 2 101q68 110 231 155q-7 13 -28 42t-30 52t-5 50q9 48 53 71q17 9 38 14.5t43.5 2.5t33.5 -19q8 -18 3 -33.5
t-15 -27.5q-9 -11 -27.5 -22.5t-26.5 -8.5q20 3 45 37q7 9 10 19.5t0 20.5t-16 13q-32 9 -66.5 -10t-41.5 -51q-5 -27 10.5 -50.5t39 -48t30.5 -43.5q16 2 49 2zM160 225q-4 18 -8 27q-137 -35 -205 -123q-60 -75 -31 -104q16 -17 55 -11q22 2 60 19q61 29 98.5 79.5
t30.5 112.5zM188 635q-4 6 -11.5 12.5t-13 10t-5.5 4.5q0 5 11 -1t15 -10q6 -5 27 -30q18 -26 35 -68q11 5 33.5 16.5t33.5 16.5q65 29 99 39q1 0 6 1t9.5 1t6.5 -2q-10 -3 -18 -7q-63 -27 -68 -30q-12 -6 -45.5 -26.5t-52.5 -29.5q-4 -3 -13 -3t-12 6q0 4 4 8q-3 7 -8.5 21
t-7.5 20q0 1 -9 21t-16 30z" />
    <glyph glyph-name="Ydieresis" unicode="&#x178;" horiz-adv-x="874" 
d="M983 690q-228 -361 -266 -418q164 82 248 119q10 4 28 11.5t44 18t44.5 17t18.5 4.5q0 -1 -2.5 -3t-7.5 -4.5t-11.5 -5.5l-13 -6t-11.5 -5t-9 -4t-5 -2q-23 -9 -84 -39q-38 -17 -81 -38.5t-95.5 -49t-81.5 -41.5q-25 -41 -74 -115t-67 -102q-119 -179 -176 -258
q-81 -114 -166 -205q-112 -122 -203 -180q-74 -45 -116 -41q-26 3 -41.5 23t-18.5 48q-7 96 84 236q119 179 387 370q152 111 326 205q110 180 311 496l123 184q-14 -15 -65.5 -74t-79.5 -90q-226 -248 -402 -370q-27 -18 -59.5 -37t-81.5 -44t-93 -36.5t-84 -12t-64 26
t-25 80.5q2 30 6.5 58.5t16 60t18.5 53t27.5 56.5t27.5 49.5t34.5 53.5t32.5 46.5t36.5 51t33.5 46.5q26 34 84.5 105.5t87.5 111.5q2 3 16 21.5t17 23.5t15 22t16.5 24.5l13.5 22.5t14 25.5t11 24.5t10 27q6 23 -3 37.5t-30.5 19t-45.5 5t-53 -4t-47.5 -8.5t-33.5 -8
q-146 -37 -279 -107q-120 -61 -225 -147q-130 -107 -172 -236q-3 -8 -8 -26t-8 -27q-3 -11 -9.5 -13t-11.5 11q-14 42 19 111q47 96 172 190q101 80 225 143q130 68 244 105q81 26 131 33q92 13 133 -11q46 -25 22 -94q-19 -56 -57 -117q-54 -86 -164.5 -233t-155.5 -215
q-16 -24 -31.5 -51t-41.5 -75t-38.5 -88.5t-17.5 -79.5t16.5 -60.5t67.5 -20.5q96 9 242 94q97 60 211 162q157 141 371 395q13 16 59.5 72t71.5 88q25 31 82.5 106.5t89.5 114.5q26 33 37 37q9 2 16 -4q5 -4 5.5 -9t-3 -11t-6.5 -9.5t-10 -11.5t-9 -10q-51 -61 -94 -121
q-114 -160 -309 -467zM342 -221q86 125 270 416q-141 -82 -250 -158q-258 -177 -391 -354q-90 -120 -106 -234q-5 -52 12 -67q25 -25 92 12q85 48 199 170q97 105 174 215zM1008 1415q-7 -15 -21 -25t-26 -10t-16 11t3 26q8 14 21.5 24.5t25.5 10.5t16 -11t-3 -26z
M1184 1415q-7 -15 -21 -25t-26 -10t-16 11t3 26q8 14 21.5 24.5t25.5 10.5t16 -11t-3 -26z" />
    <glyph glyph-name="Zcaron" unicode="&#x17d;" horiz-adv-x="1015" 
d="M1337 1288q8 -8 -1.5 -20t-20.5 -19q-304 -210 -441 -321l-442 -344q-289 -222 -428 -353q-56 -53 -91 -88t-76.5 -88.5t-67.5 -105.5q-1 -7 8 -9.5t25 -0.5t30.5 4.5t29 6t15.5 3.5q45 11 134 37t134 37q146 39 263 55q279 36 464 -12q26 -7 46 -15q1 -1 5 -2l7 -4h-2
q-17 2 -49 7t-48 7q-131 16 -241 11q-220 -7 -518 -90q-38 -8 -124.5 -33t-131.5 -33q-46 -5 -60 4q-19 13 -6 43q14 38 66 107q52 68 124 142t123.5 120.5t141.5 124.5q140 118 436 350q248 197 457 328q25 17 102.5 62.5t116.5 76.5q-59 2 -180 -6q-101 -6 -193 -21
q-204 -27 -364 -88q-62 -24 -128.5 -66.5t-101.5 -88.5q-8 -11 -37 -45q-9 -10 -17 -11t-11 13q-2 41 57 100q47 41 109 70q105 53 249 86q116 26 271 47q207 26 342 28q18 0 24 -6zM850 1477q-6 9 -17 18t-18.5 14.5t-7.5 6.5q0 8 16 -1t21 -14q13 -11 37 -43
q30 -44 51 -96q77 40 94 47q73 34 137 53q26 9 33 2q-15 -4 -25 -8q-25 -11 -96 -45l-69 -39t-70 -39q-6 -5 -18 -4.5t-15 8.5q0 7 4 11q-4 9 -11 28.5t-11 28.5q-20 51 -35 72z" />
    <glyph glyph-name="zcaron" unicode="&#x17e;" horiz-adv-x="559" 
d="M655 356q5 -4 -54 -70.5t-71 -76.5q-109 -117 -188 -166q-52 -36 -111 -45q-50 -7 -116 25q-14 6 -58 30q-6 -3 -18.5 -10t-18.5 -10q-56 -29 -90 -29q-22 0 -36 9t-9 30q7 25 32.5 45.5t53.5 26.5q16 4 31.5 0t40 -16t31.5 -15q64 42 188 158q27 25 73.5 71t61.5 60
q9 8 54 53q-32 -9 -125 -23q-17 -2 -64.5 -7t-79 -11.5t-57.5 -17.5q-20 -11 -24 -29.5t12 -36.5q19 -19 45 -25q4 -1 12 -1.5t13 -1t5 -1.5q0 -4 -24 -6q-68 0 -88 49q-12 32 9.5 58.5t55.5 36.5q57 21 170 31t162 24q6 2 23 9t24 7q22 0 12 -21q-7 -12 -20 -20
q-11 -10 -28.5 -24t-29.5 -23.5t-14 -11.5q-21 -19 -62 -58t-74 -69.5t-64 -56.5q-86 -79 -150 -121q48 -26 92 -37q66 -15 129 12q36 16 75.5 45t64.5 52t63 61q4 4 40 42.5t68 72t33 32.5zM-57 20q45 8 100 43q-6 3 -18.5 10.5t-18.5 10.5q-39 21 -82 -16q-6 -5 -12.5 -13
t-9.5 -17.5t6 -14.5q17 -7 35 -3zM264 596q-4 6 -12 12.5t-13.5 10t-5.5 4.5q0 5 12 -1.5t15 -9.5q6 -5 27 -30q18 -26 35 -68q11 5 33 16.5t34 16.5q66 30 98 39q1 0 6.5 1t10 1t6.5 -2q-10 -2 -18 -6q-52 -22 -68 -31q-10 -6 -44.5 -26t-53.5 -29q-5 -4 -13.5 -4t-11.5 6
q0 4 4 8q-3 7 -8.5 21t-7.5 20q0 1 -9 21t-16 30z" />
    <glyph glyph-name="circumflex" unicode="&#x2c6;" horiz-adv-x="690" 
d="M506 518q1 -1 5.5 -3.5t8.5 -5t4 -3.5q0 -5 -8 -2q-23 10 -35.5 22.5t-27.5 36.5q-39 60 -54 96q-85 -44 -92 -47q-5 -2 -35.5 -15.5t-50.5 -21.5t-50.5 -16t-35.5 0q38 11 121 51q23 13 141 80q6 4 17 3.5t14 -7.5q2 -6 -4 -12q4 -9 11 -29t11 -29q32 -76 60 -98z" />
    <glyph glyph-name="caron" unicode="&#x2c7;" horiz-adv-x="823" 
d="M289 647q-6 9 -17 18t-18.5 14.5t-7.5 6.5q0 8 16.5 -1t20.5 -13q11 -9 36 -43q31 -46 52 -97q88 46 94 48q73 34 137 53q26 9 33 2q-15 -4 -25 -8q-26 -11 -96 -45q-23 -13 -69.5 -39.5t-69.5 -38.5q-6 -5 -18 -4.5t-15 8.5q0 6 4 10q-4 9 -11 28.5t-11 28.5
q-20 51 -35 72z" />
    <glyph glyph-name="ring" unicode="&#x2da;" horiz-adv-x="520" 
d="M233 721q31 9 54.5 -7t19.5 -48q0 -13 -8 -29t-8 -4q0 5 1.5 16.5t1 19.5t-4.5 15q-7 19 -26 18.5t-35 -10t-27 -20.5q-13 -11 -25 -29t-17.5 -39t7.5 -35q13 -19 47 -2q34 15 51 45q9 11 23 15q9 3 10.5 -4t-2.5 -13q-12 -24 -45 -53q-50 -36 -88 -18q-27 12 -29.5 44
t10.5 56q14 28 38 50.5t52 31.5z" />
    <glyph glyph-name="tilde" unicode="&#x2dc;" horiz-adv-x="634" 
d="M487 694q3 -1 -5.5 -11.5t-14.5 -16.5q-61 -61 -133 -43q-10 2 -30 8.5t-36 10t-32 3.5q-28 0 -86 -35q-9 -7 -20 -9.5t-19 7.5q-1 3 2.5 7t9 8.5t11 8.5t11.5 8t7 5q57 39 124 21q11 -3 30.5 -9.5t30.5 -10t31 -6t33 2.5q26 6 54 27q2 2 10.5 9t14.5 11.5t7 3.5z" />
    <glyph glyph-name="hungarumlaut" unicode="&#x2dd;" horiz-adv-x="522" 
d="M283 684q5 -3 4 -9t-3.5 -9t-6.5 -7.5t-5 -5.5q-73 -79 -206 -112q-26 -4 -37 0q63 18 118 49q26 16 59.5 44.5t47.5 43.5q3 7 12 10t17 -4zM485 696q5 -3 4 -9t-3 -9t-6 -8t-5 -6q-76 -81 -207 -111q-26 -7 -37 0q62 14 119 47q27 17 60.5 45.5t46.5 44.5q4 6 12 8.5
t16 -2.5z" />
    <glyph glyph-name="quoteleft" unicode="&#x2018;" horiz-adv-x="376" 
d="M565 1223q3 0 5.5 -5.5t0.5 -7.5q-3 -11 -14 -22q-56 -78 -160 -189q-49 -53 -75 -77q-12 -12 -13 -7l2 7q11 20 29 41q21 26 86.5 112.5t103.5 132.5q12 18 35 15z" />
    <glyph glyph-name="quoteright" unicode="&#x2019;" horiz-adv-x="376" 
d="M565 1223q3 0 5.5 -5.5t0.5 -7.5q-3 -11 -14 -22q-56 -78 -160 -189q-49 -53 -75 -77q-12 -12 -13 -7l2 7q11 20 29 41q21 26 86.5 112.5t103.5 132.5q12 18 35 15z" />
    <glyph glyph-name="quotedblleft" unicode="&#x201c;" horiz-adv-x="583" 
d="M487 1223q3 0 6 -5.5t1 -7.5q-2 -9 -15 -22q-56 -78 -160 -189q-49 -53 -75 -77q-12 -12 -13 -7l2 7q11 20 29 41q17 22 85 110.5t106 134.5q12 18 34 15zM621 1223q3 0 5.5 -5.5t0.5 -7.5q-2 -9 -15 -22q-59 -82 -159 -189q-43 -46 -76 -77q-11 -11 -13 -7q0 1 3 7
q13 24 28 41q17 22 85 110.5t106 134.5q12 18 35 15z" />
    <glyph glyph-name="quotedblright" unicode="&#x201d;" horiz-adv-x="784" 
d="M688 1223q3 0 5.5 -5.5t0.5 -7.5q-3 -11 -14 -22q-56 -78 -160 -189q-43 -46 -76 -77q-11 -11 -13 -7q0 1 3 7q11 20 29 41q21 26 86.5 112.5t103.5 132.5q12 18 35 15zM821 1223q3 0 5.5 -5.5t0.5 -7.5q-3 -11 -14 -22q-56 -78 -160 -189q-49 -53 -75 -77
q-12 -12 -13 -7l2 7q11 20 29 41q21 26 86.5 112.5t103.5 132.5q12 18 35 15z" />
    <glyph glyph-name="ellipsis" unicode="&#x2026;" horiz-adv-x="860" 
d="M205 35q-7 -15 -21 -25t-26 -10t-16 11t3 26q8 14 22 24.5t26 10.5t15.5 -11t-3.5 -26zM371 35q-7 -15 -21 -25t-26 -10t-16 11t3 26q8 14 21.5 24.5t25.5 10.5t16 -11t-3 -26zM537 35q-7 -15 -21.5 -25t-26.5 -10t-15.5 11t3.5 26q8 14 21.5 24.5t25.5 10.5t16 -11
t-3 -26z" />
    <glyph glyph-name="perthousand" unicode="&#x2030;" horiz-adv-x="1456" 
d="M954 1145q7 3 15.5 1t1.5 -11q-163 -163 -223 -228q-109 -118 -334 -397q-50 -63 -213 -281q-24 -31 -74.5 -102.5t-79.5 -108.5q-9 -9 -8 0q0 6 4 13q12 27 29.5 57.5t30.5 51.5t35.5 56t33.5 52q145 213 326 432q203 241 370 403q54 54 86 62zM776 406q31 -6 51 -28.5
t23 -53.5q3 -32 -6 -62q-9 -37 -21 -39q-1 0 0.5 9.5t3.5 20t2 11.5q4 37 0 58q-6 32 -29.5 46.5t-56.5 8.5q-56 -8 -110 -62q-50 -44 -74 -106q-27 -79 2 -115q32 -39 105 -8q63 29 106 88q17 24 37 41q20 13 20 0q0 -1 -6 -25q-27 -54 -79 -96.5t-109 -52.5
q-75 -11 -107 41q-24 37 -14 90q10 60 48 113t91 88q63 41 123 33zM231 819q-31 25 -35.5 65t7.5 75t33 67q31 51 77 88t99 47q76 15 108 -39q17 -40 6 -73q-1 -1 -2.5 1t-2 4.5l-1 5t-0.5 3.5q-11 73 -67 76q-48 5 -113 -41q-49 -40 -80 -94q-41 -76 -27 -127
q7 -29 32.5 -38t56.5 -1q56 13 112 69q11 11 35 31q17 11 24 5q2 -2 1 -7q-3 -9 -8 -17.5t-12.5 -17.5t-12 -14t-15 -15t-14.5 -14q-21 -21 -58 -37t-76 -19.5t-67 17.5zM940 53q-31 25 -36 65t7 75t33 67q31 51 77 88t99 47q77 15 109 -39q17 -40 6 -73q-1 -1 -2.5 1
t-2 4.5l-1 5t-0.5 3.5q-11 73 -68 76q-47 5 -112 -41q-49 -40 -80 -94q-41 -76 -27 -127q7 -29 32.5 -38t55.5 -1q57 13 113 69q11 11 35 31q18 12 23 5q2 -2 1 -7q-3 -9 -7.5 -17.5t-13 -18t-11 -13t-15.5 -16t-14 -13.5q-21 -21 -58 -37t-76 -19.5t-67 17.5z" />
    <glyph glyph-name="fraction" unicode="&#x2044;" horiz-adv-x="696" 
d="M973 1126q7 3 15 1t1 -11q-5 -9 -33 -33q-231 -222 -524 -591q-150 -189 -305 -408q-30 -48 -61 -82q-8 -9 -8 -2q-1 6 3 12q2 5 13 27q44 83 116 190q329 478 697 838q53 49 86 59z" />
    <glyph glyph-name="Euro" unicode="&#x20ac;" horiz-adv-x="1202" 
d="M205 616q81 139 112 183q-97 -35 -122 -56q-39 -28 -58 -26q-22 0 10 36l11 11q42 35 131 59q50 15 59 17q81 104 168 186q227 216 445 291q150 48 215 2q35 -25 47 -66.5t5.5 -82t-24.5 -80.5q-46 -100 -121 -140q-55 -27 -79 -8q-9 5 -1.5 10.5t17.5 8.5q26 9 35 14
q55 31 95 85.5t50 113.5q12 65 -22.5 108t-100.5 39q-111 -8 -250 -90q-92 -54 -209 -158q-113 -107 -198 -219q91 11 148 16.5t138 5t148 -13.5q20 -5 27 -10q8 -8 5 -8h-3q-15 4 -45 8q-179 24 -445 -33q-20 -26 -40.5 -56t-46.5 -70t-38 -58q125 30 256 45q152 17 267 12
q20 0 45.5 -3t57 -10.5t50.5 -24t14 -40.5q-5 -16 -12 -16q-1 1 -0.5 4t1.5 9.5t1 9.5q-2 31 -49 43q-47 11 -108 14q-110 0 -228 -16q-136 -17 -317 -68q-50 -86 -86 -191q-52 -162 -25 -264q15 -57 52 -85.5t81.5 -30.5t99.5 12t98 33t85 43q104 59 207 145q56 46 133 123
q4 4 11 12.5t12 14.5t6 6q5 -3 -17 -31t-31 -37q-75 -83 -184 -164q-129 -94 -223 -135q-137 -61 -232 -39q-57 13 -90 58.5t-43 107.5q-18 116 31 272q19 62 51 127q-46 -15 -112 -49q-9 -6 -19.5 -8.5t-13.5 8.5q0 21 39 43q44 28 129 51z" />
    <glyph glyph-name="trademark" unicode="&#x2122;" horiz-adv-x="972" 
d="M850 1126q6 6 12 1.5t4 -13.5q-6 -19 -43 -96q-6 -13 -22 -45t-26.5 -55.5t-18.5 -47.5q-8 -23 1 -22q2 0 5 2q3 1 15.5 11.5t24 20.5t11.5 9q4 -2 -9 -19.5t-32 -32.5t-29 -10q-8 5 -10.5 15.5t1 24.5t7 25.5t9 25.5t6.5 16q12 29 47 102q-8 -11 -24.5 -34t-24.5 -35
q-12 -15 -33.5 -47t-32.5 -48l-5 -5q-30 -36 -36 -15q-1 6 1.5 17.5t6.5 21.5t10.5 26.5t8.5 22.5q2 4 18 40t23 56q-50 -74 -107 -137q-7 -7 -20 -22t-21 -23q-24 -24 -43 -22q-8 2 -8 8t8 8q14 2 41 20q28 24 74 82q13 16 37.5 48t36.5 49q25 37 32 55q2 5 7.5 8t9.5 2
q9 -3 0 -29q-12 -28 -42 -95.5t-46 -106.5q23 23 61 78q12 18 47 64.5t52 72.5q12 24 16 28zM926 1165q28 -7 50 -27q5 -4 3 -5q-92 47 -240 36q-58 -5 -137 -26q-29 -7 -65 -26.5t-45 -31.5q-20 -19 -27 -24q-14 -6 -5 22l1 2q18 30 80 56q120 48 258 45q76 -4 127 -21z
M621 1092q-7 -13 -20.5 -39.5t-20.5 -40.5q-59 -111 -86 -154q-14 -22 -19 -24q-3 -1 -1 5l1 7q4 13 14.5 35.5t12.5 27.5q18 39 55 111t43 84q10 20 27 14q9 -3 -6 -26z" />
    </font>
</defs>
</svg>
